Sign Up   |   Sign In  

Announcements

Want to support us?
Buy a RapidRAR account from our resellers: VIP-KEYS | KEYINSTANT | TAKEVOUCHER
Buy or renew a NitroFlare account via THIS LINK

08/18

2013

2

Comments

Revenge of the Creature (1955) DVDRip
[UL/EB/180U/HuF]
Size: 842MB avi XVID / AC3

Revenge of the Creature
Click on the image to see full size
[UL/EB/180U/HuF] Revenge of the Creature (1955) DVDRip  (842MB) - Snapshot 1[UL/EB/180U/HuF] Revenge of the Creature (1955) DVDRip  (842MB) - Snapshot 2
File Information
Revenge of the Creature (1955) DVDRip 

IMDb: http://www.imdb.com/title/tt0048554/



General
Complete name                            : Revenge of the Creature (1955).avi
Format                                   : AVI
Format/Info                              : Audio Video Interleave
Format profile                           : OpenDML
Format settings                          : rec
File size                                : 803 MiB
Duration                                 : 1h 21mn
Overall bit rate                         : 1 374 Kbps
Writing application                      : AVI-Mux GUI 1.17.8, Aug 30 2008  12:36:58

Video
ID                                       : 0
Format                                   : MPEG-4 Visual
Format profile                           : Advanced [email protected]
Format settings, BVOP                    : 1
Format settings, QPel                    : No
Format settings, GMC                     : No warppoints
Format settings, Matrix                  : Default (MPEG)
Muxing mode                              : Packed bitstream
Codec ID                                 : XVID
Codec ID/Hint                            : XviD
Duration                                 : 1h 21mn
Bit rate                                 : 1 240 Kbps
Width                                    : 624 pixels
Height                                   : 448 pixels
Display aspect ratio                     : 1.393
Frame rate                               : 23.976 fps
Color space                              : YUV
Chroma subsampling                       : 4:2:0
Bit depth                                : 8 bits
Scan type                                : Progressive
Compression mode                         : Lossy
Bits/(Pixel*Frame)                       : 0.185
Stream size                              : 725 MiB (90%)
Writing library                          : XviD 1.2.0.dev47 (UTC 2006-11-01)

Audio
ID                                       : 1
Format                                   : AC-3
Format/Info                              : Audio Coding 3
Mode extension                           : CM (complete main)
Format settings, Endianness              : Big
Codec ID                                 : 2000
Duration                                 : 1h 21mn
Bit rate mode                            : Constant
Bit rate                                 : 128 Kbps
Channel(s)                               : 2 channels
Channel positions                        : Front: L R
Sampling rate                            : 48.0 KHz
Bit depth                                : 16 bits
Compression mode                         : Lossy
Stream size                              : 74.8 MiB (9%)
Alignment                                : Aligned on interleaves
Interleave, duration                     : 64 ms (1.53 video frames)
Interleave, preload duration             : 192 ms
Title                                    : 1
Download
File Container: AVI
Video/Audio Codec: XVID AC3
Video Resolution:
RAR Recovery Record: 5% (How to repair corrupted archive RAR file?)
  Link(s) are dead.
  Link(s) are dead.
  Link(s) are dead.
  Link(s) are dead.

Show us some love

2 Responses to "[UL/EB/180U/HuF] Revenge of the Creature (1955) DVDRip (842MB)"
08/18/13
17:34:29
matchbox

Thanks for this. I love these old 1950's horror and sci-fi films. Keep them coming!

11/28/14
22:42:39
daemon

Any chance of getting working links.

Thank you.

Leave a Comment

  • (never displayed)
  •  
        Members don't see captchas. Sign Up / Sign In
  • Notify me via email when someone responds.
  • Subscribe my Feeds
  • Facebook

Latest Episodes

Popular Movies and TV Shows

  • Homeland
  • Jackie
  • Sherlock
  • I blodet
  • Fighting Fish
  • The Affair
  • Ride
  • Taboo
  • Voltron: Legendary Defender
  • Center Stage
  • Manchester by the Sea
  • Sinners and Saints
  • The Librarians
  • Salem
  • Hawaii Five-0
  • The Little Death
  • The Concorde... Airport '79
  • Divines
  • Apple Tree Yard
  • Endeavour
  • Call the Midwife
  • The Birthday Wish
  • Tupac: Aftermath
  • Airport 1975
  • Grimm

Recent Comments

  • thaone:

    Thanks

  • Kenny_McCormick: there are several youtube videos showing a side by side comparison of the two movies. it's such a tr...
  • tunaman: Yeah, much of the dialogue in "Airplane!" follows "Zero Hour" so closely that th...
  • thaone:

    Thanks

  • Pennymay:

    Thanks a lot! :)

  • David-A-H:

    Very many thanks

  • Be All End All: Working English subtitles from the WEB-DL subtitles adjusted to sync with BluRay. https://subscene.c...
  • Byala:

    @GSF

    that movie was called "Zero Hour" released in 1957

  • petit papa baston: Problem with "Son of Zorn S01E11 HDTV x264-BRISK" between 00:00:45 and 00:00:49 !!! Is the...
  • GSF.: If you like Airplane! take a look at this movie, Airplane! used this movie series as the template to...