Sign Up   |   Sign In  

Announcements

Want to support us?
Buy a RapidRAR account from our resellers:
Buy or renew a NitroFlare account via THIS LINK

04/19

2017

No

Comments

Revolution 2012 S02 BDRip x264-SNOW
[RR/NF]
Size: 6.5GB mkv H264 (HIGH) / AAC (LC) 720x404 TV Pack

Revolution
Click on the image to see full size
[RR/NF] Revolution 2012 S02 BDRip x264-SNOW (6.5GB) - Snapshot 1[RR/NF] Revolution 2012 S02 BDRip x264-SNOW (6.5GB) - Snapshot 2
File Information
[URL=http://imagecurl.com/viewer.php?file=50989904612792788059.png][IMG]http://imagecurl.com/images/50989904612792788059_thumb.png[/IMG][/URL]
[URL=http://imagecurl.com/viewer.php?file=92966063310542512504.png][IMG]http://imagecurl.com/images/92966063310542512504_thumb.png[/IMG][/URL]
[URL=http://imagecurl.com/viewer.php?file=24580228601631056804.png][IMG]http://imagecurl.com/images/24580228601631056804_thumb.png[/IMG][/URL]
[URL=http://imagecurl.com/viewer.php?file=94881660350296693134.png][IMG]http://imagecurl.com/images/94881660350296693134_thumb.png[/IMG][/URL]
[URL=http://imagecurl.com/viewer.php?file=21484588520566439127.png][IMG]http://imagecurl.com/images/21484588520566439127_thumb.png[/IMG][/URL]
[URL=http://imagecurl.com/viewer.php?file=79700185252974190130.png][IMG]http://imagecurl.com/images/79700185252974190130_thumb.png[/IMG][/URL]



[mediainfo]
Video
ID                                       : 1
Format                                   : AVC
Format/Info                              : Advanced Video Codec
Format profile                           : [email protected]
Format settings, CABAC                   : Yes
Format settings, ReFrames                : 5 frames
Codec ID                                 : V_MPEG4/ISO/AVC
Duration                                 : 42mn 59s
Bit rate                                 : 1 110 Kbps
Width                                    : 720 pixels
Height                                   : 404 pixels
Display aspect ratio                     : 16:9
Frame rate mode                          : Constant
Frame rate                               : 23.976 (24000/1001) fps
Color space                              : YUV
Chroma subsampling                       : 4:2:0
Bit depth                                : 8 bits
Scan type                                : Progressive
Bits/(Pixel*Frame)                       : 0.159
Stream size                              : 341 MiB (89%)
Writing library                          : x264 core 142 r2453 ea0ca51
 Encoding settings                        : cabac=1 / ref=5 / deblock=1:0:0 / analyse=0x3:0x113 / me=umh / subme=8 / psy=1 / psy_rd=1.00:0.00 / mixed_ref=1 / me_range=16 / chroma_me=1 / trellis=1 / 8x8dct=1 / cqm=0 / deadz / fast pskip=1 / chroma_qp_offset=-2 / threads=12 / lookahead_threads=2 / sliced_threads=0 / nr=0 / decimate=1 / interlaced=0 / bluray_compat=0 / c / bframes=3 / b_pyramid=2 / b_adapt=2 / b_bias=0 / direct=3 / weightb=1 / open_gop=0 / weightp=2 / keyint=250 / keyint_min=25 / scenecut=40 / intra_refresh=0 / rc_lookahead=50 / rc=crf / mbtree=1 / crf=19.0 / qcomp=0.60 / qpmin=0 / qpmax=69 / qpstep=4 / ip_ratio=1.40 / aq=1:1.00
Language                                 : English
Default                                  : Yes
Forced                                   : No
Color range                              : Limited
Matrix coefficients                      : BT.709

Audio
ID                                       : 2
Format                                   : AAC
Format/Info                              : Advanced Audio Codec
Format profile                           : LC
Codec ID                                 : A_AAC
Duration                                 : 43mn 0s
Bit rate                                 : 128 Kbps
Channel(s)                               : 2 channels
Channel positions                        : Front: L R
Sampling rate                            : 48.0 KHz
Frame rate                               : 46.875 fps (1024 spf)
Compression mode                         : Lossy
Delay relative to video                  : 9ms
Stream size                              : 39.4 MiB (10%)
Title                                    : English
Language                                 : English
Default                                  : Yes
Forced                                   : No

Text #1
ID                                       : 3
Format                                   : UTF-8
Codec ID                                 : S_TEXT/UTF8
Codec ID/Info                            : UTF-8 Plain Text
Duration                                 : 42mn 54s
Bit rate                                 : 41 bps
Count of elements                        : 502
Stream size                              : 13.0 KiB (0%)
Title                                    : English SDH
Language                                 : English
Default                                  : No
Forced                                   : No

Text #2
ID                                       : 4
Format                                   : UTF-8
Codec ID                                 : S_TEXT/UTF8
Codec ID/Info                            : UTF-8 Plain Text
Duration                                 : 41mn 34s
Bit rate                                 : 41 bps
Count of elements                        : 476
Stream size                              : 12.5 KiB (0%)
Title                                    : English
Language                                 : English
Default                                  : No
Forced                                   : No

Menu
00:00:00.000                             : en:00:00:00.000
00:01:07.651                             : en:00:01:07.651
00:06:16.001                             : en:00:06:16.001
00:12:45.932                             : en:00:12:45.932
00:22:51.620                             : en:00:22:51.620
00:32:23.733                             : en:00:32:23.733
00:37:27.871                             : en:00:37:27.871
00:42:20.580                             : en:00:42:20.580



[/mediainfo]
Download
File Container: MKV
Video/Audio Codec: H264 (HIGH) AAC (LC)
Video Resolution: 720x404
 
 

Show us some love

Leave a Comment

  • (never displayed)
  •  
        Members don't see captchas. Sign Up / Sign In
  • Notify me via email when someone responds.
  • Subscribe my Feeds
  • Facebook

Latest Episodes

Popular Movies and TV Shows

  • Prison Break: Sequel
  • The Handmaid's Tale
  • The Flash
  • Atlantis Rising
  • Mythica: The Iron Crown
  • Monster's Ball
  • Agents of S.H.I.E.L.D.
  • iZombie
  • The Americans
  • The Affair
  • The Void
  • Fifty Shades Darker
  • Brooklyn Nine-Nine
  • Harlots
  • The Mick
  • Little Deaths
  • Letter to Brezhnev
  • Tha se do stin Kolasi, agapi mou
  • Great News
  • Supergirl
  • Better Call Saul
  • Umi ga kikoeru
  • Miekkailija
  • Secuestro
  • Gotham

Recent Comments

  • Howardalams: Кроме папилайт шумеры считали нефть целебной и приним...
  • violetcherry: @Admin Sorry to ask you again, but it's been four weeks and you do respond to some other questions, ...
  • dude68: Any chance of series 14 episode 1 with an 480p rtm re encode pleasethank you for the quality re enco...
  • violetcherry: Following links are dead/file removed for Kims Convenience S01E12 720p WEB-DL HEVC Uploaded.net: U...
  • b007:

    Thank you for the amazing upload!

  • meridian: "Subtitles" in the info refers to soft subs, the kind you can turn on/off. If you look at...
  • asric:

    Could I get a refresh on the rapidrar links, please? Thank you in advance!

  • MahBoff:

    Thanks for all the great webrips you come out with!

  • bigbadbryce: Halt and Catch Fire (S1-S4)Any chance of a RapidRar re-up please? Ciao
  • kel:

    Hello? Will the admin please re-up Season 1 of Homeland (RapidRar) links?