Sign Up   |   Sign In  

Announcements

Want to support us?
Buy a RapidRAR account from our resellers:
Buy or renew a NitroFlare account via THIS LINK

06/19

2017

No

Comments

S O B 1981 1080p BluRay H264 AAC-RARBG
[RR/NF/UL/UR]
Size: 2.3GB mp4 H264 (HIGH) (AVC1) / AAC (LC) (MP4A)  HD  1920x800

S.O.B.
Click on the image to see full size
[RR/NF/UL/UR] S O B 1981 1080p BluRay H264 AAC-RARBG (2.3GB) - Snapshot 1
File Information
[URL=http://imagecurl.com/viewer.php?file=37042265051404734393.png][IMG]http://imagecurl.com/images/37042265051404734393_thumb.png[/IMG][/URL]
[URL=http://imagecurl.com/viewer.php?file=72541750581604097528.png][IMG]http://imagecurl.com/images/72541750581604097528_thumb.png[/IMG][/URL]
[URL=http://imagecurl.com/viewer.php?file=54526125788087035899.png][IMG]http://imagecurl.com/images/54526125788087035899_thumb.png[/IMG][/URL]
[URL=http://imagecurl.com/viewer.php?file=83482384999368441931.png][IMG]http://imagecurl.com/images/83482384999368441931_thumb.png[/IMG][/URL]
[URL=http://imagecurl.com/viewer.php?file=84964136662427267301.png][IMG]http://imagecurl.com/images/84964136662427267301_thumb.png[/IMG][/URL]


[mediainfo]
Video
ID                                       : 1
Format                                   : AVC
Format/Info                              : Advanced Video Codec
Format profile                           : High@L4.1
Format settings, CABAC                   : Yes
Format settings, ReFrames                : 4 frames
Codec ID                                 : avc1
Codec ID/Info                            : Advanced Video Coding
Duration                                 : 2 h 1 min
Bit rate                                 : 2 500 kb/s
Width                                    : 1 920 pixels
Height                                   : 800 pixels
Display aspect ratio                     : 2.40:1
Frame rate mode                          : Constant
Frame rate                               : 23.976 (23976/1000) FPS
Color space                              : YUV
Chroma subsampling                       : 4:2:0
Bit depth                                : 8 bits
Scan type                                : Progressive
Bits/(Pixel*Frame)                       : 0.068
Stream size                              : 2.12 GiB (92%)
Writing library                          : x264 core 148 r2597M e86f3a1
 Encoding settings                        : cabac=1 / ref=4 / deblock=1:-1:-1 / analyse=0x3:0x113 / me=umh / subme=9 / psy=1 / psy_rd=1.00:0.15 / mixed_ref=1 / me_range=24 / chroma_me=1 / trellis=2 / 8x8dct=1 / cqm=0 / deadz / fast pskip=1 / chroma_qp_offset=-3 / threads=32 / lookahead_threads=4 / sliced_threads=0 / nr=0 / decimate=1 / interlaced=0 / bluray_compat=0 / c / bframes=3 / b_pyramid=2 / b_adapt=2 / b_bias=0 / direct=3 / weightb=1 / open_gop=0 / weightp=2 / keyint=250 / keyint_min=25 / scenecut=40 / intra_refresh=0 / rc_lookahead=50 / rc=2pass / mbtree=1 / bitrate=2500 / ratetol=1.0 / qcomp=0.60 / qpmin=0 / qpmax=69 / qpstep=4 / cplxblur=20.0 / qblur=0.5 / vbv_maxrate=31250 / vbv_bufsize=31250 / nal_hrd=none / filler=0 / ip_ratio=1.40 / aq=3:1.00
Encoded date                             : UTC 2017-06-19 12:21:47
Tagged date                              : UTC 2017-06-19 12:21:47

Audio
ID                                       : 2
Format                                   : AAC
Format/Info                              : Advanced Audio Codec
Format profile                           : LC
Codec ID                                 : 40
Duration                                 : 2 h 1 min
Bit rate mode                            : Constant
Bit rate                                 : 224 kb/s
Channel(s)                               : 2 channels
Channel positions                        : Front: L R
Sampling rate                            : 48.0 kHz
Frame rate                               : 46.875 FPS (1024 spf)
Compression mode                         : Lossy
Stream size                              : 194 MiB (8%)
Language                                 : English
Default                                  : Yes
Alternate group                          : 1
Encoded date                             : UTC 2017-06-19 12:21:47
Tagged date                              : UTC 2017-06-19 12:21:47



[/mediainfo]
Download
File Container: MP4
Video/Audio Codec: H264 (HIGH) (AVC1) AAC (LC) (MP4A)
Video Resolution: 1920x800
 
 
 
 

Show us some love

Leave a Comment

  • (never displayed)
  •  
        Members don't see captchas. Sign Up / Sign In
  • Notify me via email when someone responds.
  • Subscribe my Feeds
  • Facebook

Latest Episodes

Popular Movies and TV Shows

  • Okja
  • iZombie
  • Chris D'Elia: Man on Fire
  • Seuls
  • Preacher
  • Animal Kingdom
  • Tales
  • After School Special
  • Transformers: The Last Knight
  • Pretty Little Liars
  • The Lost City of Z
  • Hotel Transylvania
  • Downward Dog
  • Wrecked
  • Black Butterfly
  • A Few Less Men
  • Innocence
  • Hardcore Pawn
  • Their Finest
  • Alien: Covenant
  • Broken
  • Avalon
  • Glastonbury 2017
  • Stitchers
  • Silicon Valley

Recent Comments

  • thaone:

    Thanks

  • thaone:

    Thanks

  • thaone:

    Thanks

  • David-A-H:

    Thank you and thanks for episode 7

  • sjors 2.0: Thanks for the full six seasons of Justified. After a year the Rapidrar links all still work.
  • No1: Once again japanese audio although source had the dubbed english track as well. So sad that only a s...
  • thaone:

    Thanks

  • thaone:

    Thanks

  • mda:

    Thx could you please do a 1080p HEVC

  • mda:

    1080p HEVC Please