Sign Up   |   Sign In  
The Great NorthDune: Part TwoGrimsburgBeacon 23The ChannelTrinket BoxGuardians of the Galaxy Vol. 3ShogunCold JusticeThe Bellboy and the PlaygirlsThis TownThere's Still TomorrowParishSaturday Night LiveNinja KamuiFantastic Four: Rise of the Silver SurferThe Taste of ThingsLegend of the Lost LocketFalloutGrey's AnatomyImmoral WomenS.W.A.T.WillowScrambledFBI

Announcements

02/18

2024

1

Comments

S W A T 2017 S07E01 The Promise 1080p AMZN WEB-DL DDP5 1 H 264-NTb
[RR/NF]
Size: 2.4GB mkv H264 (HIGH) / EAC3  HD  1920x1080

S.W.A.T.
File Information
[img]http://lookpic.com/cdn/i2/t/0218202408043761-1.jpg[/img]
[img]http://lookpic.com/cdn/i2/t/0218202408043761-2.jpg[/img]
[img]http://lookpic.com/cdn/i2/t/0218202408043761-3.jpg[/img]

General
Unique ID                                : 314245741130983050963860381625928076906 (0xEC69873CF78AB94BDCDBCB9C30234E6A)
Complete name                            : S.W.A.T.2017.S07E01.The.Promise.1080p.AMZN.WEB-DL.DDP5.1.H.264-NTb.mkv
Format                                   : Matroska
Format version                           : Version 4
File size                                : 2.39 GiB
Duration                                 : 42 min 26 s
Overall bit rate                         : 8 067 kb/s
Frame rate                               : 23.976 FPS
Writing application                      : mkvmerge v81.0 ('Milliontown') 64-bit
Writing library                          : libebml v1.4.4 + libmatroska v1.7.1

Video
ID                                       : 1
Format                                   : AVC
Format/Info                              : Advanced Video Codec
Format profile                           : High@L4
Format settings                          : CABAC / 4 Ref Frames
Format settings, CABAC                   : Yes
Format settings, Reference frames        : 4 frames
Codec ID                                 : V_MPEG4/ISO/AVC
Duration                                 : 42 min 26 s
Bit rate mode                            : Constant
Bit rate                                 : 7 425 kb/s
Nominal bit rate                         : 10 000 kb/s
Width                                    : 1 920 pixels
Height                                   : 1 080 pixels
Display aspect ratio                     : 16:9
Frame rate mode                          : Constant
Frame rate                               : 23.976 (24000/1001) FPS
Color space                              : YUV
Chroma subsampling                       : 4:2:0
Bit depth                                : 8 bits
Scan type                                : Progressive
Bits/(Pixel*Frame)                       : 0.149
Stream size                              : 2.20 GiB (92%)
Default                                  : Yes
Forced                                   : No
Color range                              : Limited
Color primaries                          : BT.709
Transfer characteristics                 : BT.709
Matrix coefficients                      : BT.709

Audio
ID                                       : 2
Format                                   : E-AC-3
Format/Info                              : Enhanced AC-3
Commercial name                          : Dolby Digital Plus
Codec ID                                 : A_EAC3
Duration                                 : 42 min 26 s
Bit rate mode                            : Constant
Bit rate                                 : 640 kb/s
Channel(s)                               : 6 channels
Channel layout                           : L R C LFE Ls Rs
Sampling rate                            : 48.0 kHz
Frame rate                               : 31.250 FPS (1536 SPF)
Compression mode                         : Lossy
Stream size                              : 194 MiB (8%)
Language                                 : English (US)
Service kind                             : Complete Main
Default                                  : Yes
Forced                                   : No

Text #1
ID                                       : 3
Format                                   : UTF-8
Codec ID                                 : S_TEXT/UTF8
Codec ID/Info                            : UTF-8 Plain Text
Duration                                 : 41 min 13 s
Bit rate                                 : 80 b/s
Frame rate                               : 0.325 FPS
Count of elements                        : 805
Stream size                              : 24.2 KiB (0%)
Language                                 : English (US)
Default                                  : No
Forced                                   : No

Text #2
ID                                       : 4
Format                                   : UTF-8
Codec ID                                 : S_TEXT/UTF8
Codec ID/Info                            : UTF-8 Plain Text
Duration                                 : 41 min 32 s
Bit rate                                 : 84 b/s
Frame rate                               : 0.350 FPS
Count of elements                        : 872
Stream size                              : 25.6 KiB (0%)
Title                                    : SDH
Language                                 : English (US)
Default                                  : No
Forced                                   : No



Download
File Container: MKV
Video/Audio Codec: H264 (HIGH) EAC3
Video Resolution: 1920x1080

1 Response to "[RR/NF] S W A T 2017 S07E01 The Promise 1080p AMZN WEB-DL DDP5 1 H 264-NTb (2.4GB)"
02/18/24
19:53:46
ReadyPlayerOne

Thank You

Please Login to post a comment.
If you don't have any account, please Register.
  • Subscribe my Feeds
  • Facebook
Encoding Queue:  x264  x265

Latest Episodes

Popular Movies and TV Shows

  • The Great North
  • Dune: Part Two
  • Grimsburg
  • Beacon 23
  • The Channel
  • Trinket Box
  • Guardians of the Galaxy Vol. 3
  • Shogun
  • Cold Justice
  • The Bellboy and the Playgirls
  • This Town
  • There's Still Tomorrow
  • Parish
  • Saturday Night Live
  • Ninja Kamui
  • Fantastic Four: Rise of the Silver Surfer
  • The Taste of Things
  • Legend of the Lost Locket
  • Fallout
  • Grey's Anatomy
  • Immoral Women
  • S.W.A.T.
  • Willow
  • Scrambled
  • FBI

Recent Comments

  • mentalityx:

    Rad bloke

  • DownloadHostInspector:

    so far these RMTeam uploads always have a working link. DownloadHostInspector approved!

  • DownloadHostInspector:

    ah yes, this upload has a host that works. clicknupload. DownloadHostInspector approved!

  • DownloadHostInspector: Why are all the download hosts trash? none of them let you download it
  • Qua4ratic:

    clicknupload link plz

  • ppoo:

    Please, can you add "Real Time with Bill Maher S22E11" ??

  • theahtisham:

    Kindly upload Ep. 3 and 4 as well.

  • Kudzu: Update on sound issue, File's codec info says stereo but is only a the left channel If I switch i...
  • Admin:

    kang
    Getting error while encoding, sorry

Archives