Sign Up   |   Sign In  

Announcements

Want to support us?
Buy a RapidRAR account from our resellers:
Buy or renew a NitroFlare account via THIS LINK

04/16

2017

1

Comments

Samurai Jack S05E05 1080p WEB-DL DD5 1 H264-RARBG
[RR/NF/UL/OL/OLw/UR/CU]
Size: 872MB mkv H264 (HIGH) / AC3  HD  1920x1080

Samurai Jack
Click on the image to see full size
[RR/NF/UL/OL/OLw/UR/CU] Samurai Jack S05E05 1080p WEB-DL DD5 1 H264-RARBG (872MB) - Snapshot 1
File Information
[URL=http://imagecurl.com/viewer.php?file=58213175196976793391.png][IMG]http://imagecurl.com/images/58213175196976793391_thumb.png[/IMG][/URL]
[URL=http://imagecurl.com/viewer.php?file=49676112152292445932.png][IMG]http://imagecurl.com/images/49676112152292445932_thumb.png[/IMG][/URL]
[URL=http://imagecurl.com/viewer.php?file=32567461889955342161.png][IMG]http://imagecurl.com/images/32567461889955342161_thumb.png[/IMG][/URL]
[URL=http://imagecurl.com/viewer.php?file=12381443028313069937.png][IMG]http://imagecurl.com/images/12381443028313069937_thumb.png[/IMG][/URL]



[mediainfo]
Video
ID                                       : 1
Format                                   : AVC
Format/Info                              : Advanced Video Codec
Format profile                           : [email protected]
Format settings, CABAC                   : Yes
Format settings, ReFrames                : 4 frames
Codec ID                                 : V_MPEG4/ISO/AVC
Duration                                 : 22mn 32s
Bit rate                                 : 4 919 Kbps
Width                                    : 1 920 pixels
Height                                   : 1 080 pixels
Display aspect ratio                     : 16:9
Frame rate mode                          : Constant
Frame rate                               : 23.976 (24000/1001) fps
Color space                              : YUV
Chroma subsampling                       : 4:2:0
Bit depth                                : 8 bits
Scan type                                : Progressive
Bits/(Pixel*Frame)                       : 0.099
Stream size                              : 793 MiB (91%)
Title                                    : Samurai.Jack.S05E05.1080p.WEB-DL.DD5.1.H264-RARBG
Language                                 : English
Default                                  : Yes
Forced                                   : No
Color range                              : Limited
Color primaries                          : BT.709
Transfer characteristics                 : BT.709
Matrix coefficients                      : BT.709

Audio
ID                                       : 2
Format                                   : AC-3
Format/Info                              : Audio Coding 3
Mode extension                           : CM (complete main)
Format settings, Endianness              : Big
Codec ID                                 : A_AC3
Duration                                 : 22mn 32s
Bit rate mode                            : Constant
Bit rate                                 : 384 Kbps
Channel(s)                               : 6 channels
Channel positions                        : Front: L C R, Side: L R, LFE
Sampling rate                            : 48.0 KHz
Frame rate                               : 31.250 fps (1536 spf)
Compression mode                         : Lossy
Stream size                              : 61.9 MiB (7%)
Title                                    : Samurai.Jack.S05E05.1080p.WEB-DL.DD5.1.H264-RARBG
Language                                 : English
Default                                  : Yes
Forced                                   : No

Text #1
ID                                       : 3
Format                                   : UTF-8
Codec ID                                 : S_TEXT/UTF8
Codec ID/Info                            : UTF-8 Plain Text
Language                                 : English
Default                                  : Yes
Forced                                   : No

Text #2
ID                                       : 4
Format                                   : UTF-8
Codec ID                                 : S_TEXT/UTF8
Codec ID/Info                            : UTF-8 Plain Text
Title                                    : SDH
Language                                 : English
Default                                  : No
Forced                                   : No



[/mediainfo]
Download
File Container: MKV
Video/Audio Codec: H264 (HIGH) AC3
Video Resolution: 1920x1080
 
 
 
 
 
 
Watch Online [MP4]

Show us some love

1 Response to "[RR/NF/UL/OL/OLw/UR/CU] Samurai Jack S05E05 1080p WEB-DL DD5 1 H264-RARBG (872MB)"
05/19/17
11:20:06
Admin

RapidRAR re-uploaded with new RAR file(s) (users who couldn't download some parts need to download all parts again).

Leave a Comment

  • (never displayed)
  •  
        Members don't see captchas. Sign Up / Sign In
  • Notify me via email when someone responds.
  • Subscribe my Feeds
  • Facebook

Latest Episodes

Popular Movies and TV Shows

  • Bloodline
  • Doctor Who
  • 12 Monkeys
  • Naked Ambition: An R Rated Look at an X Rated Industry
  • Queen Rock Montreal & Live Aid
  • The Northlander
  • Neon Joe, Werewolf Hunter
  • The Handmaid's Tale
  • An Unfinished Life
  • The Americans
  • Ma vie de Courgette
  • John Wick: Chapter 2
  • Colossal
  • Hinterland
  • A Cure for Wellness
  • T2 Trainspotting
  • Clique
  • The Late Show with Stephen Colbert
  • War Machine
  • Black Widows
  • Jamestown
  • The Last Word
  • Logan
  • Vixen
  • Arrow

Recent Comments

  • nunya: Big, big thank you to whoever created this. HD rips are well and good but they're unnecessary for a ...
  • simondsen: Never understood why Femme is singular and Fatales is plural. Bad knowledge of French by the authors...
  • sebus:

    https://www.dailymotion.com/video/x5lnrsj

  • feds:

    Awww, no English Subtitles for the Hearing Impaired? smh

  • peyman usa:

    CHILD OF SATAN 2017 1080P BLURAY DD5.1 HEVC X265-RMTEAM while
    2CH 5.1 is not

  • thaone:

    Thank you

  • thaone:

    Thank you

  • thaone:

    Thank you

  • thaone:

    Thank you

  • thaone:

    Thank you