Sign Up   |   Sign In  

Announcements

Want to support us?
Buy a RapidRAR account from our resellers:
Buy or renew a NitroFlare account via THIS LINK

04/16

2017

1

Comments

Samurai Jack S05E05 720p WEB-DL DD5 1 H264-RARBG
[RR/NF/UL/OL/OLw/UR]
Size: 690MB mkv H264 (HIGH) / AC3  HD  1280x720

Samurai Jack
Click on the image to see full size
[RR/NF/UL/OL/OLw/UR] Samurai Jack S05E05 720p WEB-DL DD5 1 H264-RARBG (690MB) - Snapshot 1
File Information
[URL=http://imagecurl.com/viewer.php?file=52563023916770638349.png][IMG]http://imagecurl.com/images/52563023916770638349_thumb.png[/IMG][/URL]
[URL=http://imagecurl.com/viewer.php?file=44507052915304257841.png][IMG]http://imagecurl.com/images/44507052915304257841_thumb.png[/IMG][/URL]
[URL=http://imagecurl.com/viewer.php?file=16668968134863540537.png][IMG]http://imagecurl.com/images/16668968134863540537_thumb.png[/IMG][/URL]
[URL=http://imagecurl.com/viewer.php?file=45390907030487667230.png][IMG]http://imagecurl.com/images/45390907030487667230_thumb.png[/IMG][/URL]



[mediainfo]
Video
ID                                       : 1
Format                                   : AVC
Format/Info                              : Advanced Video Codec
Format profile                           : [email protected]
Format settings, CABAC                   : No
Format settings, ReFrames                : 2 frames
Codec ID                                 : V_MPEG4/ISO/AVC
Duration                                 : 22mn 32s
Bit rate                                 : 3 814 Kbps
Width                                    : 1 280 pixels
Height                                   : 720 pixels
Display aspect ratio                     : 16:9
Frame rate mode                          : Constant
Frame rate                               : 23.976 (24000/1001) fps
Color space                              : YUV
Chroma subsampling                       : 4:2:0
Bit depth                                : 8 bits
Scan type                                : Progressive
Bits/(Pixel*Frame)                       : 0.173
Stream size                              : 615 MiB (89%)
Title                                    : Samurai.Jack.S05E05.720p.WEB-DL.DD5.1.H264-RARBG
Language                                 : English
Default                                  : Yes
Forced                                   : No
Color range                              : Limited
Color primaries                          : BT.709
Transfer characteristics                 : BT.709
Matrix coefficients                      : BT.709

Audio
ID                                       : 2
Format                                   : AC-3
Format/Info                              : Audio Coding 3
Mode extension                           : CM (complete main)
Format settings, Endianness              : Big
Codec ID                                 : A_AC3
Duration                                 : 22mn 32s
Bit rate mode                            : Constant
Bit rate                                 : 384 Kbps
Channel(s)                               : 6 channels
Channel positions                        : Front: L C R, Side: L R, LFE
Sampling rate                            : 48.0 KHz
Frame rate                               : 31.250 fps (1536 spf)
Compression mode                         : Lossy
Stream size                              : 61.9 MiB (9%)
Title                                    : Samurai.Jack.S05E05.720p.WEB-DL.DD5.1.H264-RARBG
Language                                 : English
Default                                  : Yes
Forced                                   : No

Text #1
ID                                       : 3
Format                                   : UTF-8
Codec ID                                 : S_TEXT/UTF8
Codec ID/Info                            : UTF-8 Plain Text
Language                                 : English
Default                                  : Yes
Forced                                   : No

Text #2
ID                                       : 4
Format                                   : UTF-8
Codec ID                                 : S_TEXT/UTF8
Codec ID/Info                            : UTF-8 Plain Text
Title                                    : SDH
Language                                 : English
Default                                  : No
Forced                                   : No



[/mediainfo]
Download
File Container: MKV
Video/Audio Codec: H264 (HIGH) AC3
Video Resolution: 1280x720
 
 
 
 
 
Watch Online [MP4]

Show us some love

1 Response to "[RR/NF/UL/OL/OLw/UR] Samurai Jack S05E05 720p WEB-DL DD5 1 H264-RARBG (690MB)"
05/19/17
11:20:11
Admin

RapidRAR re-uploaded with new RAR file(s) (users who couldn't download some parts need to download all parts again).

Leave a Comment

  • (never displayed)
  •  
        Members don't see captchas. Sign Up / Sign In
  • Notify me via email when someone responds.
  • Subscribe my Feeds
  • Facebook

Latest Episodes

Popular Movies and TV Shows

  • Dark Matter
  • The Originals
  • Wynonna Earp
  • King Arthur: Legend of the Sword
  • Extortion
  • Personal Shopper
  • GLOW
  • Riviera
  • Kong: Skull Island
  • The Mist
  • Gao geung jing dou fu
  • Stefan Zweig: Farewell to Europe
  • Free Rein
  • The Graham Norton Show
  • So Awkward
  • The Bad Batch
  • 10 Days in a Madhouse
  • CHIPS
  • Queen of the South
  • Powerless
  • Fargo
  • You Get Me
  • Ripped
  • Sadie's Last Days on Earth
  • Blood Drive

Recent Comments

  • mda:

    1080p HEVC Web please

  • KibaDz: Hello, there is a problem with image of the presentation of the episodeThanks for all your efforts b...
  • cico:

    Please, reupload..

  • frankwysz:

    Please DL Episode 1 of Season 2

  • CharMir:

    Are you not doing Web dl for this series anymore?

  • LycanHD: Everybody keep calm and download Kong LOLftp://Guest:[email protected]/Movies/2017 Releases/Kong.S...
  • !7320!!myxxxbase.mobi: 6821 <a href="http://myxxxbase.mobi/">http://myxxxbase.mobi/</a> 7398 http://m...
  • Renee:

    Sound very badly out of sync. Dont download

  • Ali-sensei93:

    no sound with openload.video is fine but without any sound whatsoever how can fix this

  • P:

    Thank you very much!