Sign Up   |   Sign In  
Young SheldonTrackerTMZ Presents: The Downfall of DiddyBob's BurgersThe Name of the RoseImmaculateThe Green VeilDevil in the FleshBodkinThe Great NorthQueen of the GypsiesTales of Ordinary MadnessThe SimpsonsThe EqualizerCSI: VegasGolden KamuyBaby DriverChallengersThe SympathizerKrapopolisS.W.A.T.Triple FrontierA Walk Among the TombstonesDawn of the Planet of the ApesBeacon 23

Announcements

04/17

2024

No

Comments

Secret Invasion S01E01 Episode 1 DSNP WEB-DL 1080p AVC EAC3 NTb
[RR/NF]
Size: 2.5GB mkv H264 (HIGH) / EAC3  HD  1920x1080

Secret Invasion
File Information
[img]http://lookpic.com/cdn/i2/t/0417202403595025-1.jpg[/img]
[img]http://lookpic.com/cdn/i2/t/0417202403595025-2.jpg[/img]
[img]http://lookpic.com/cdn/i2/t/0417202403595025-3.jpg[/img]

General
Unique ID                                : 273159952672588475728237057138656321996 (0xCD80B178911BC8D320676B511054A1CC)
Complete name                            : Secret Invasion S01E01 Episode 1 DSNP WEB-DL 1080p AVC EAC3 NTb.mkv
Format                                   : Matroska
Format version                           : Version 4
File size                                : 2.47 GiB
Duration                                 : 52 min 44 s
Overall bit rate mode                    : Variable
Overall bit rate                         : 6 702 kb/s
Frame rate                               : 24.000 FPS
Writing application                      : mkvmerge v76.0 ('Celebration') 64-bit
Writing library                          : libebml v1.4.4 + libmatroska v1.7.1

Video
ID                                       : 1
Format                                   : AVC
Format/Info                              : Advanced Video Codec
Format profile                           : High@L4
Format settings                          : CABAC / 4 Ref Frames
Format settings, CABAC                   : Yes
Format settings, Reference frames        : 4 frames
Codec ID                                 : V_MPEG4/ISO/AVC
Duration                                 : 52 min 44 s
Bit rate mode                            : Variable
Bit rate                                 : 5 929 kb/s
Maximum bit rate                         : 12.7 Mb/s
Width                                    : 1 920 pixels
Height                                   : 1 080 pixels
Display aspect ratio                     : 16:9
Frame rate mode                          : Constant
Frame rate                               : 24.000 FPS
Color space                              : YUV
Chroma subsampling                       : 4:2:0
Bit depth                                : 8 bits
Scan type                                : Progressive
Bits/(Pixel*Frame)                       : 0.119
Time code of first frame                 : 00:00:00:0000000000
Stream size                              : 2.18 GiB (88%)
Default                                  : Yes
Forced                                   : No
Color range                              : Limited
Color primaries                          : BT.709
Transfer characteristics                 : BT.709
Matrix coefficients                      : BT.709

Audio
ID                                       : 2
Format                                   : E-AC-3 JOC
Format/Info                              : Enhanced AC-3 with Joint Object Coding
Commercial name                          : Dolby Digital Plus with Dolby Atmos
Codec ID                                 : A_EAC3
Duration                                 : 52 min 44 s
Bit rate mode                            : Constant
Bit rate                                 : 768 kb/s
Channel(s)                               : 6 channels
Channel layout                           : L R C LFE Ls Rs
Sampling rate                            : 48.0 kHz
Frame rate                               : 31.250 FPS (1536 SPF)
Compression mode                         : Lossy
Stream size                              : 290 MiB (11%)
Language                                 : English
Service kind                             : Complete Main
Default                                  : Yes
Forced                                   : No
Complexity index                         : 16
Number of dynamic objects                : 15
Bed channel count                        : 1 channel
Bed channel configuration                : LFE

Text #1
ID                                       : 3
Format                                   : UTF-8
Codec ID                                 : S_TEXT/UTF8
Codec ID/Info                            : UTF-8 Plain Text
Duration                                 : 49 min 10 s
Bit rate                                 : 43 b/s
Frame rate                               : 0.157 FPS
Count of elements                        : 463
Stream size                              : 15.8 KiB (0%)
Language                                 : English
Default                                  : No
Forced                                   : No

Text #2
ID                                       : 4
Format                                   : UTF-8
Codec ID                                 : S_TEXT/UTF8
Codec ID/Info                            : UTF-8 Plain Text
Duration                                 : 49 min 22 s
Bit rate                                 : 48 b/s
Frame rate                               : 0.183 FPS
Count of elements                        : 541
Stream size                              : 17.6 KiB (0%)
Title                                    : SDH
Language                                 : English
Default                                  : No
Forced                                   : No

Text #3
ID                                       : 5
Format                                   : UTF-8
Codec ID                                 : S_TEXT/UTF8
Codec ID/Info                            : UTF-8 Plain Text
Duration                                 : 52 min 27 s
Bit rate                                 : 37 b/s
Frame rate                               : 0.152 FPS
Count of elements                        : 477
Stream size                              : 14.5 KiB (0%)
Language                                 : Czech
Default                                  : No
Forced                                   : No

Text #4
ID                                       : 6
Format                                   : UTF-8
Codec ID                                 : S_TEXT/UTF8
Codec ID/Info                            : UTF-8 Plain Text
Duration                                 : 52 min 26 s
Bit rate                                 : 36 b/s
Frame rate                               : 0.113 FPS
Count of elements                        : 356
Stream size                              : 14.2 KiB (0%)
Language                                 : Danish
Default                                  : No
Forced                                   : No

Text #5
ID                                       : 7
Format                                   : UTF-8
Codec ID                                 : S_TEXT/UTF8
Codec ID/Info                            : UTF-8 Plain Text
Duration                                 : 52 min 27 s
Bit rate                                 : 41 b/s
Frame rate                               : 0.154 FPS
Count of elements                        : 485
Stream size                              : 16.0 KiB (0%)
Language                                 : German
Default                                  : No
Forced                                   : No

Text #6
ID                                       : 8
Format                                   : UTF-8
Codec ID                                 : S_TEXT/UTF8
Codec ID/Info                            : UTF-8 Plain Text
Duration                                 : 52 min 27 s
Bit rate                                 : 73 b/s
Frame rate                               : 0.152 FPS
Count of elements                        : 478
Stream size                              : 28.3 KiB (0%)
Language                                 : Greek
Default                                  : No
Forced                                   : No

Text #7
ID                                       : 9
Format                                   : UTF-8
Codec ID                                 : S_TEXT/UTF8
Codec ID/Info                            : UTF-8 Plain Text
Duration                                 : 52 min 27 s
Bit rate                                 : 42 b/s
Frame rate                               : 0.152 FPS
Count of elements                        : 477
Stream size                              : 16.2 KiB (0%)
Title                                    : Spanish (Latin America)
Language                                 : Spanish (Latin America)
Default                                  : No
Forced                                   : No

Text #8
ID                                       : 10
Format                                   : UTF-8
Codec ID                                 : S_TEXT/UTF8
Codec ID/Info                            : UTF-8 Plain Text
Duration                                 : 52 min 27 s
Bit rate                                 : 41 b/s
Frame rate                               : 0.151 FPS
Count of elements                        : 476
Stream size                              : 15.8 KiB (0%)
Title                                    : Spanish (Spain)
Language                                 : Spanish (ES)
Default                                  : No
Forced                                   : No

Text #9
ID                                       : 11
Format                                   : UTF-8
Codec ID                                 : S_TEXT/UTF8
Codec ID/Info                            : UTF-8 Plain Text
Duration                                 : 52 min 27 s
Bit rate                                 : 40 b/s
Frame rate                               : 0.151 FPS
Count of elements                        : 475
Stream size                              : 15.7 KiB (0%)
Language                                 : Finnish
Default                                  : No
Forced                                   : No

Text #10
ID                                       : 12
Format                                   : UTF-8
Codec ID                                 : S_TEXT/UTF8
Codec ID/Info                            : UTF-8 Plain Text
Duration                                 : 49 min 19 s
Bit rate                                 : 41 b/s
Frame rate                               : 0.173 FPS
Count of elements                        : 513
Stream size                              : 15.0 KiB (0%)
Title                                    : French (Canada)
Language                                 : French (CA)
Default                                  : No
Forced                                   : No

Text #11
ID                                       : 13
Format                                   : UTF-8
Codec ID                                 : S_TEXT/UTF8
Codec ID/Info                            : UTF-8 Plain Text
Duration                                 : 52 min 26 s
Bit rate                                 : 39 b/s
Frame rate                               : 0.163 FPS
Count of elements                        : 513
Stream size                              : 15.1 KiB (0%)
Title                                    : French (France)
Language                                 : French (FR)
Default                                  : No
Forced                                   : No

Text #12
ID                                       : 14
Format                                   : UTF-8
Codec ID                                 : S_TEXT/UTF8
Codec ID/Info                            : UTF-8 Plain Text
Duration                                 : 52 min 27 s
Bit rate                                 : 41 b/s
Frame rate                               : 0.152 FPS
Count of elements                        : 479
Stream size                              : 16.1 KiB (0%)
Language                                 : Hungarian
Default                                  : No
Forced                                   : No

Text #13
ID                                       : 15
Format                                   : UTF-8
Codec ID                                 : S_TEXT/UTF8
Codec ID/Info                            : UTF-8 Plain Text
Duration                                 : 52 min 27 s
Bit rate                                 : 40 b/s
Frame rate                               : 0.151 FPS
Count of elements                        : 475
Stream size                              : 15.7 KiB (0%)
Language                                 : Italian
Default                                  : No
Forced                                   : No

Text #14
ID                                       : 16
Format                                   : UTF-8
Codec ID                                 : S_TEXT/UTF8
Codec ID/Info                            : UTF-8 Plain Text
Duration                                 : 52 min 27 s
Bit rate                                 : 36 b/s
Frame rate                               : 0.148 FPS
Count of elements                        : 466
Stream size                              : 14.2 KiB (0%)
Language                                 : Japanese
Default                                  : No
Forced                                   : No

Text #15
ID                                       : 17
Format                                   : UTF-8
Codec ID                                 : S_TEXT/UTF8
Codec ID/Info                            : UTF-8 Plain Text
Duration                                 : 52 min 27 s
Bit rate                                 : 41 b/s
Frame rate                               : 0.153 FPS
Count of elements                        : 480
Stream size                              : 15.9 KiB (0%)
Language                                 : Korean
Default                                  : No
Forced                                   : No

Text #16
ID                                       : 18
Format                                   : UTF-8
Codec ID                                 : S_TEXT/UTF8
Codec ID/Info                            : UTF-8 Plain Text
Duration                                 : 52 min 27 s
Bit rate                                 : 39 b/s
Frame rate                               : 0.143 FPS
Count of elements                        : 451
Stream size                              : 15.3 KiB (0%)
Language                                 : Dutch
Default                                  : No
Forced                                   : No

Text #17
ID                                       : 19
Format                                   : UTF-8
Codec ID                                 : S_TEXT/UTF8
Codec ID/Info                            : UTF-8 Plain Text
Duration                                 : 52 min 27 s
Bit rate                                 : 37 b/s
Frame rate                               : 0.151 FPS
Count of elements                        : 476
Stream size                              : 14.4 KiB (0%)
Language                                 : Norwegian
Default                                  : No
Forced                                   : No

Text #18
ID                                       : 20
Format                                   : UTF-8
Codec ID                                 : S_TEXT/UTF8
Codec ID/Info                            : UTF-8 Plain Text
Duration                                 : 52 min 27 s
Bit rate                                 : 42 b/s
Frame rate                               : 0.151 FPS
Count of elements                        : 475
Stream size                              : 16.3 KiB (0%)
Language                                 : Polish
Default                                  : No
Forced                                   : No

Text #19
ID                                       : 21
Format                                   : UTF-8
Codec ID                                 : S_TEXT/UTF8
Codec ID/Info                            : UTF-8 Plain Text
Duration                                 : 52 min 27 s
Bit rate                                 : 45 b/s
Frame rate                               : 0.152 FPS
Count of elements                        : 478
Stream size                              : 17.3 KiB (0%)
Title                                    : Portuguese (Brazil)
Language                                 : Portuguese (BR)
Default                                  : No
Forced                                   : No

Text #20
ID                                       : 22
Format                                   : UTF-8
Codec ID                                 : S_TEXT/UTF8
Codec ID/Info                            : UTF-8 Plain Text
Duration                                 : 52 min 27 s
Bit rate                                 : 42 b/s
Frame rate                               : 0.152 FPS
Count of elements                        : 477
Stream size                              : 16.5 KiB (0%)
Title                                    : Portuguese (Portugal)
Language                                 : Portuguese (PT)
Default                                  : No
Forced                                   : No

Text #21
ID                                       : 23
Format                                   : UTF-8
Codec ID                                 : S_TEXT/UTF8
Codec ID/Info                            : UTF-8 Plain Text
Duration                                 : 52 min 27 s
Bit rate                                 : 41 b/s
Frame rate                               : 0.152 FPS
Count of elements                        : 477
Stream size                              : 15.8 KiB (0%)
Language                                 : Romanian
Default                                  : No
Forced                                   : No

Text #22
ID                                       : 24
Format                                   : UTF-8
Codec ID                                 : S_TEXT/UTF8
Codec ID/Info                            : UTF-8 Plain Text
Duration                                 : 52 min 27 s
Bit rate                                 : 40 b/s
Frame rate                               : 0.152 FPS
Count of elements                        : 477
Stream size                              : 15.4 KiB (0%)
Language                                 : Slovak
Default                                  : No
Forced                                   : No

Text #23
ID                                       : 25
Format                                   : UTF-8
Codec ID                                 : S_TEXT/UTF8
Codec ID/Info                            : UTF-8 Plain Text
Duration                                 : 52 min 27 s
Bit rate                                 : 39 b/s
Frame rate                               : 0.123 FPS
Count of elements                        : 387
Stream size                              : 15.2 KiB (0%)
Language                                 : Swedish
Default                                  : No
Forced                                   : No

Text #24
ID                                       : 26
Format                                   : UTF-8
Codec ID                                 : S_TEXT/UTF8
Codec ID/Info                            : UTF-8 Plain Text
Duration                                 : 52 min 27 s
Bit rate                                 : 41 b/s
Frame rate                               : 0.152 FPS
Count of elements                        : 479
Stream size                              : 15.9 KiB (0%)
Language                                 : Turkish
Default                                  : No
Forced                                   : No

Text #25
ID                                       : 27
Format                                   : UTF-8
Codec ID                                 : S_TEXT/UTF8
Codec ID/Info                            : UTF-8 Plain Text
Duration                                 : 52 min 27 s
Bit rate                                 : 32 b/s
Frame rate                               : 0.153 FPS
Count of elements                        : 480
Stream size                              : 12.5 KiB (0%)
Title                                    : Chinese (Hong Kong SAR China)
Language                                 : Chinese (HK)
Default                                  : No
Forced                                   : No

Text #26
ID                                       : 28
Format                                   : UTF-8
Codec ID                                 : S_TEXT/UTF8
Codec ID/Info                            : UTF-8 Plain Text
Duration                                 : 52 min 27 s
Bit rate                                 : 31 b/s
Frame rate                               : 0.153 FPS
Count of elements                        : 480
Stream size                              : 11.9 KiB (0%)
Title                                    : Chinese (Traditional)
Language                                 : Chinese (Traditional)
Default                                  : No
Forced                                   : No

Menu
00:00:00.000                             : en:Chapter 1
00:14:58.830                             : en:Chapter 2
00:24:18.914                             : en:Chapter 3
00:34:06.080                             : en:Chapter 4
00:44:34.705                             : en:Chapter 5
00:50:08.914                             : en:Credits



Download
File Container: MKV
Video/Audio Codec: H264 (HIGH) EAC3
Video Resolution: 1920x1080
Please Login to post a comment.
If you don't have any account, please Register.
  • Subscribe my Feeds
  • Facebook
Encoding Queue:  x264  x265

Latest Episodes

Popular Movies and TV Shows

  • Young Sheldon
  • Tracker
  • TMZ Presents: The Downfall of Diddy
  • Bob's Burgers
  • The Name of the Rose
  • Immaculate
  • The Green Veil
  • Devil in the Flesh
  • Bodkin
  • The Great North
  • Queen of the Gypsies
  • Tales of Ordinary Madness
  • The Simpsons
  • The Equalizer
  • CSI: Vegas
  • Golden Kamuy
  • Baby Driver
  • Challengers
  • The Sympathizer
  • Krapopolis
  • S.W.A.T.
  • Triple Frontier
  • A Walk Among the Tombstones
  • Dawn of the Planet of the Apes
  • Beacon 23

Recent Comments

  • Bud: Is the search engine down for everyone, or just me? It just says 'You're forbidden!' whenever I lo...
  • 23d1:

    not episode 4 it is episode 3

  • 23d1:

    not episode 4 it is episode 3

  • 23d1:

    not episode 4 it is episode 3

  • 23d1:

    not episode 4 it is episode 3

  • aaroz88:

    Trimas!!

  • mptoo: I don't often ask this, infact this would be the first time, but I don't suppose there is any chance...
  • Cinque_Persson:

    btw:
    quote /quote
    is broken

  • gabrielsyme:

    Sorry but where is the clicknupload link?

  • mike1204:

    Is this episode doomed??? The RMX avi version is only 12 minutes long!!!

  • waanaabe:

    Could PUSHING DAISES kindly be upoaded to CU? THANKS!

Archives