Sign Up   |   Sign In  
ShogunImmaculateSweet DreamsJimmy Carr: Natural Born KillerThe NeighborhoodFriends Like HerNCISNCIS: Hawai'iCtrl+Alt+DesireProject DorothySpring LakesDune: Part TwoAll AmericanFamily GuyThe SympathizerThe 100th: Billy Joel at Madison Square Garden - The Greatest Arena Run of All TimeThe Crow: SalvationHundreds of BeaversTrackerThe Great NorthThe Bold and the BeautifulModel HouseAbba: How They Won EurovisionKurt Cobain: Moments That Shook MusicFallout

Announcements

03/02

2024

No

Comments

Seinfeld S02E01 The Ex-Girlfriend 1080p AMZN WEB-DL DDP2 0 H 264-NTb
[RR/NF]
Size: 2.3GB mkv H264 (HIGH) / EAC3  HD  1920x1080

Seinfeld
File Information
[img]http://lookpic.com/cdn/i2/t/0302202420441514-1.jpg[/img]
[img]http://lookpic.com/cdn/i2/t/0302202420441514-2.jpg[/img]
[img]http://lookpic.com/cdn/i2/t/0302202420441514-3.jpg[/img]

General
Unique ID                                : 197091445516748383226331759131320191788 (0x94466E81F2519B94BD667FF338FD0B2C)
Complete name                            : Seinfeld.S02E01.The.Ex-Girlfriend.1080p.AMZN.WEB-DL.DDP2.0.H.264-NTb.mkv
Format                                   : Matroska
Format version                           : Version 4
File size                                : 2.34 GiB
Duration                                 : 23 min 0 s
Overall bit rate mode                    : Variable
Overall bit rate                         : 14.6 Mb/s
Frame rate                               : 23.976 FPS
Encoded date                             : 2017-06-18 14:37:17 UTC
Writing application                      : mkvmerge v12.0.0 ('Trust / Lust') 64bit
Writing library                          : libebml v1.3.4 + libmatroska v1.4.5

Video
ID                                       : 1
Format                                   : AVC
Format/Info                              : Advanced Video Codec
Format profile                           : High@L4
Format settings                          : CABAC / 4 Ref Frames
Format settings, CABAC                   : Yes
Format settings, Reference frames        : 4 frames
Codec ID                                 : V_MPEG4/ISO/AVC
Duration                                 : 23 min 0 s
Bit rate mode                            : Variable
Bit rate                                 : 14.4 Mb/s
Maximum bit rate                         : 15.0 Mb/s
Width                                    : 1 920 pixels
Height                                   : 1 080 pixels
Display aspect ratio                     : 16:9
Frame rate mode                          : Constant
Frame rate                               : 23.976 (24000/1001) FPS
Color space                              : YUV
Chroma subsampling                       : 4:2:0
Bit depth                                : 8 bits
Scan type                                : Progressive
Bits/(Pixel*Frame)                       : 0.289
Stream size                              : 2.31 GiB (98%)
Default                                  : Yes
Forced                                   : No
Color range                              : Limited
Color primaries                          : BT.709
Transfer characteristics                 : BT.709
Matrix coefficients                      : BT.709

Audio
ID                                       : 2
Format                                   : E-AC-3
Format/Info                              : Enhanced AC-3
Commercial name                          : Dolby Digital Plus
Codec ID                                 : A_EAC3
Duration                                 : 23 min 0 s
Bit rate mode                            : Constant
Bit rate                                 : 224 kb/s
Channel(s)                               : 2 channels
Channel layout                           : L R
Sampling rate                            : 48.0 kHz
Frame rate                               : 31.250 FPS (1536 SPF)
Compression mode                         : Lossy
Stream size                              : 36.9 MiB (2%)
Language                                 : English
Service kind                             : Complete Main
Default                                  : Yes
Forced                                   : No

Text
ID                                       : 3
Format                                   : UTF-8
Codec ID                                 : S_TEXT/UTF8
Codec ID/Info                            : UTF-8 Plain Text
Duration                                 : 22 min 54 s
Bit rate                                 : 97 b/s
Frame rate                               : 0.305 FPS
Count of elements                        : 419
Stream size                              : 16.3 KiB (0%)
Default                                  : No
Forced                                   : No

Menu
00:00:00.273                             : en:Traffic
00:04:33.496                             : en:Cantaloupe and books
00:08:16.848                             : en:Waiting room
00:14:08.850                             : en:Break
00:14:10.111                             : en:Elaine returns Jerry's lamp
00:18:31.133                             : en:Confronting George
00:22:13.138                             : en:End Credits



Download
File Container: MKV
Video/Audio Codec: H264 (HIGH) EAC3
Video Resolution: 1920x1080
Please Login to post a comment.
If you don't have any account, please Register.
  • Subscribe my Feeds
  • Facebook
Encoding Queue:  x264  x265

Latest Episodes

Popular Movies and TV Shows

  • Shogun
  • Immaculate
  • Sweet Dreams
  • Jimmy Carr: Natural Born Killer
  • The Neighborhood
  • Friends Like Her
  • NCIS
  • NCIS: Hawai'i
  • Ctrl+Alt+Desire
  • Project Dorothy
  • Spring Lakes
  • Dune: Part Two
  • All American
  • Family Guy
  • The Sympathizer
  • The 100th: Billy Joel at Madison Square Garden - The Greatest Arena Run of All Time
  • The Crow: Salvation
  • Hundreds of Beavers
  • Tracker
  • The Great North
  • The Bold and the Beautiful
  • Model House
  • Abba: How They Won Eurovision
  • Kurt Cobain: Moments That Shook Music
  • Fallout

Recent Comments

  • kellym2: Why am I getting "Server is in maintenance mode" on some episodes of a series and not on o...
  • Bud:

    Are you ever going to put up Thursday's episode with Liev Schreiber?

  • alp-engin:

    When will that maintenance be over? Please...

  • mentalityx:

    Rad bloke

  • DownloadHostInspector:

    so far these RMTeam uploads always have a working link. DownloadHostInspector approved!

  • DownloadHostInspector:

    ah yes, this upload has a host that works. clicknupload. DownloadHostInspector approved!

  • DownloadHostInspector: Why are all the download hosts trash? none of them let you download it
  • Qua4ratic:

    clicknupload link plz

  • ppoo:

    Please, can you add "Real Time with Bill Maher S22E11" ??

  • theahtisham:

    Kindly upload Ep. 3 and 4 as well.

Archives