Sign Up   |   Sign In  
Beacon 23ParishWillowSaturday Night LiveScrambledRiddle of FireImmoral WomenReal Time with Bill MaherThe War on ChildrenPacific Rim: UprisingAll RiseBlueyBlue BloodsS.W.A.T.Grey's AnatomySleeping DogsHoax: The Kidnapping of Sherri PapiniT2 TrainspottingFalloutFire CountryBeyond ParadiseDamagedWhiplashLaRoy, TexasSugar

Announcements

02/21

2024

No

Comments

Sesame Street S54E12 720p WEB-DL AAC2 0 H 264-NTb
[RR/NF/CU]
Size: 525MB mkv H264 (HIGH) / AAC (HE-AAC)  HD  1280x720

Sesame Street
File Information
[img]http://lookpic.com/cdn/i2/t/0221202412142629-1.jpg[/img]
[img]http://lookpic.com/cdn/i2/t/0221202412142629-2.jpg[/img]
[img]http://lookpic.com/cdn/i2/t/0221202412142629-3.jpg[/img]

General
Unique ID                                : 328494682895919917999579404438402575077 (0xF721C64E8D939EEA5A342BF38DA12AE5)
Complete name                            : Sesame.Street.S54E12.720p.WEB-DL.AAC2.0.H.264-NTb.mkv
Format                                   : Matroska
Format version                           : Version 4
File size                                : 525 MiB
Duration                                 : 25 min 55 s
Overall bit rate mode                    : Variable
Overall bit rate                         : 2 834 kb/s
Frame rate                               : 29.970 FPS
Movie name                               : The Flamingo Scoop
Description                              : When Fred the Flamingo is visiting Sesame Street for a family reunion, Elmo, Rudy and Nina learn all about flamingos.
Encoded date                             : 2024-02-21 01:22:14 UTC
Writing application                      : mkvmerge v68.0.0 ('The Curtain') 64-bit
Writing library                          : libebml v1.4.2 + libmatroska v1.6.4
Cover                                    : Yes
Attachments                              : cover.png

Video
ID                                       : 1
Format                                   : AVC
Format/Info                              : Advanced Video Codec
Format profile                           : High@L3.1
Format settings                          : CABAC / 4 Ref Frames
Format settings, CABAC                   : Yes
Format settings, Reference frames        : 4 frames
Codec ID                                 : V_MPEG4/ISO/AVC
Duration                                 : 25 min 54 s
Bit rate mode                            : Variable
Bit rate                                 : 2 725 kb/s
Maximum bit rate                         : 4 000 kb/s
Width                                    : 1 280 pixels
Height                                   : 720 pixels
Display aspect ratio                     : 16:9
Frame rate mode                          : Constant
Frame rate                               : 29.970 (30000/1001) FPS
Color space                              : YUV
Chroma subsampling                       : 4:2:0
Bit depth                                : 8 bits
Scan type                                : Progressive
Bits/(Pixel*Frame)                       : 0.099
Stream size                              : 505 MiB (96%)
Writing library                          : x264 core 164
 Encoding settings                        : cabac=1 / ref=4 / deblock=1:0:0 / analyse=0x3:0x133 / me=umh / subme=10 / psy=1 / psy_rd=1.00:0.00 / mixed_ref=1 / me_range=24 / chroma_me=1 / trellis=2 / 8x8dct=1 / cqm=0 / deadz / fast pskip=1 / chroma_qp_offset=-2 / threads=22 / lookahead_threads=1 / sliced_threads=0 / nr=0 / decimate=1 / interlaced=0 / bluray_compat=0 / stitchable=1 / c / bframes=3 / b_pyramid=2 / b_adapt=2 / b_bias=0 / direct=3 / weightb=1 / open_gop=0 / weightp=2 / keyint=120 / keyint_min=61 / scenecut=0 / intra_refresh=0 / rc_lookahead=120 / rc=crf / mbtree=1 / crf=21.0 / qcomp=0.60 / qpmin=0 / qpmax=69 / qpstep=4 / vbv_maxrate=4000 / vbv_bufsize=16000 / crf_max=0.0 / nal_hrd=vbr / filler=0 / ip_ratio=1.40 / aq=1:1.00
Default                                  : Yes
Forced                                   : No
Color range                              : Limited
Color primaries                          : BT.709
Transfer characteristics                 : BT.709
Matrix coefficients                      : BT.709

Audio
ID                                       : 2
Format                                   : AAC LC SBR
Format/Info                              : Advanced Audio Codec Low Complexity with Spectral Band Replication
Commercial name                          : HE-AAC
Format settings                          : Explicit
Codec ID                                 : A_AAC-2
Duration                                 : 25 min 55 s
Bit rate                                 : 62.7 kb/s
Channel(s)                               : 2 channels
Channel layout                           : L R
Sampling rate                            : 48.0 kHz
Frame rate                               : 23.438 FPS (2048 SPF)
Compression mode                         : Lossy
Stream size                              : 11.6 MiB (2%)
Title                                    : English
Language                                 : English
Default                                  : Yes
Forced                                   : No

Text
ID                                       : 3
Format                                   : UTF-8
Codec ID                                 : S_TEXT/UTF8
Codec ID/Info                            : UTF-8 Plain Text
Duration                                 : 25 min 49 s
Bit rate                                 : 119 b/s
Frame rate                               : 0.436 FPS
Count of elements                        : 675
Stream size                              : 22.5 KiB (0%)
Title                                    : English CC
Language                                 : English
Default                                  : Yes
Forced                                   : No



Download
File Container: MKV
Video/Audio Codec: H264 (HIGH) AAC (HE-AAC)
Video Resolution: 1280x720
Please Login to post a comment.
If you don't have any account, please Register.
  • Subscribe my Feeds
  • Facebook
Encoding Queue:  x264  x265

Latest Episodes

Popular Movies and TV Shows

  • Beacon 23
  • Parish
  • Willow
  • Saturday Night Live
  • Scrambled
  • Riddle of Fire
  • Immoral Women
  • Real Time with Bill Maher
  • The War on Children
  • Pacific Rim: Uprising
  • All Rise
  • Bluey
  • Blue Bloods
  • S.W.A.T.
  • Grey's Anatomy
  • Sleeping Dogs
  • Hoax: The Kidnapping of Sherri Papini
  • T2 Trainspotting
  • Fallout
  • Fire Country
  • Beyond Paradise
  • Damaged
  • Whiplash
  • LaRoy, Texas
  • Sugar

Recent Comments

  • DownloadHostInspector:

    so far these RMTeam uploads always have a working link. DownloadHostInspector approved!

  • DownloadHostInspector:

    ah yes, this upload has a host that works. clicknupload. DownloadHostInspector approved!

  • DownloadHostInspector: Why are all the download hosts trash? none of them let you download it
  • Qua4ratic:

    clicknupload link plz

  • ppoo:

    Please, can you add "Real Time with Bill Maher S22E11" ??

  • theahtisham:

    Kindly upload Ep. 3 and 4 as well.

  • Kudzu: Update on sound issue, File's codec info says stereo but is only a the left channel If I switch i...
  • Admin:

    kang
    Getting error while encoding, sorry

  • rambaldi70:

    sorry this release ok.
    but descripton is bad
    (Duration: 2h56m7s)

Archives