Sign Up   |   Sign In  
Rebel Moon - Part Two: The ScargiverLate Night with the DevilElsbethBlood for DustSo Help Me ToddThe Spiderwick ChroniclesSugarYoung SheldonA Gentleman in MoscowAsphalt CityProblemistaRiver WildLaw & Order: Special Victims UnitManhuntGhostsGhostbusters: Frozen EmpireThe Three Musketeers - Part II: MiladyThe ReaderStar Trek: DiscoveryAmerican Horror StoryFamily GuyYou Were Never Really HereGodzilla x Kong: The New EmpireDune: Part TwoThe Good Doctor

Announcements

03/01

2024

No

Comments

Sexy Beast S01E01 More 720p AMZN WEB-DL DDP5 1 H 264-FLUX
[RR/NF/CU]
Size: 1.1GB mkv H264 (HIGH) / EAC3  HD  1280x720

Sexy Beast
  • Sexy Beast (2024-)
  • Genre: Drama
  • Created By: Michael Caleo
  • Country: United States
  • Original Language: English
  • Original Network: Paramount+
  • Storyline: With their reputation growing across London, thieves Gal and Don are recruited by renowned criminal boss Teddy Bass for a high-stakes job. But as they continue to rise in the criminal world, they find their lives changed forever.
File Information
[img]http://lookpic.com/cdn/i2/t/0301202411550167-1.jpg[/img]
[img]http://lookpic.com/cdn/i2/t/0301202411550167-2.jpg[/img]
[img]http://lookpic.com/cdn/i2/t/0301202411550167-3.jpg[/img]

General
Unique ID                                : 116714934133405764803579080954589633881 (0x57CE7A897E1CDBDBB36DD47793AE5D59)
Complete name                            : Sexy.Beast.S01E01.More.720p.AMZN.WEB-DL.DDP5.1.H.264-FLUX.mkv
Format                                   : Matroska
Format version                           : Version 4
File size                                : 1.10 GiB
Duration                                 : 55 min 8 s
Overall bit rate                         : 2 846 kb/s
Frame rate                               : 23.976 FPS
Writing application                      : mkvmerge v81.0 ('Milliontown') 64-bit
Writing library                          : libebml v1.4.4 + libmatroska v1.7.1

Video
ID                                       : 1
Format                                   : AVC
Format/Info                              : Advanced Video Codec
Format profile                           : High@L3.1
Format settings                          : CABAC / 4 Ref Frames
Format settings, CABAC                   : Yes
Format settings, Reference frames        : 4 frames
Codec ID                                 : V_MPEG4/ISO/AVC
Duration                                 : 55 min 8 s
Bit rate mode                            : Constant
Bit rate                                 : 2 204 kb/s
Nominal bit rate                         : 4 000 kb/s
Width                                    : 1 280 pixels
Height                                   : 720 pixels
Display aspect ratio                     : 16:9
Frame rate mode                          : Constant
Frame rate                               : 23.976 (24000/1001) FPS
Color space                              : YUV
Chroma subsampling                       : 4:2:0
Bit depth                                : 8 bits
Scan type                                : Progressive
Bits/(Pixel*Frame)                       : 0.100
Stream size                              : 869 MiB (77%)
Default                                  : Yes
Forced                                   : No
Color range                              : Limited
Color primaries                          : BT.709
Transfer characteristics                 : BT.709
Matrix coefficients                      : BT.709

Audio
ID                                       : 2
Format                                   : E-AC-3
Format/Info                              : Enhanced AC-3
Commercial name                          : Dolby Digital Plus
Codec ID                                 : A_EAC3
Duration                                 : 55 min 8 s
Bit rate mode                            : Constant
Bit rate                                 : 640 kb/s
Channel(s)                               : 6 channels
Channel layout                           : L R C LFE Ls Rs
Sampling rate                            : 48.0 kHz
Frame rate                               : 31.250 FPS (1536 SPF)
Compression mode                         : Lossy
Stream size                              : 252 MiB (22%)
Language                                 : English (US)
Service kind                             : Complete Main
Default                                  : Yes
Forced                                   : No

Text #1
ID                                       : 3
Format                                   : UTF-8
Codec ID                                 : S_TEXT/UTF8
Codec ID/Info                            : UTF-8 Plain Text
Duration                                 : 53 min 19 s
Bit rate                                 : 72 b/s
Frame rate                               : 0.317 FPS
Count of elements                        : 1013
Stream size                              : 28.4 KiB (0%)
Language                                 : English (US)
Default                                  : No
Forced                                   : No

Text #2
ID                                       : 4
Format                                   : UTF-8
Codec ID                                 : S_TEXT/UTF8
Codec ID/Info                            : UTF-8 Plain Text
Duration                                 : 53 min 33 s
Bit rate                                 : 81 b/s
Frame rate                               : 0.348 FPS
Count of elements                        : 1119
Stream size                              : 31.9 KiB (0%)
Title                                    : SDH
Language                                 : English (US)
Default                                  : No
Forced                                   : No

Menu
00:00:00.000                             : en:Studio Logo
00:00:07.000                             : en:Main
00:53:38.000                             : en:Credits



Download
File Container: MKV
Video/Audio Codec: H264 (HIGH) EAC3
Video Resolution: 1280x720
Please Login to post a comment.
If you don't have any account, please Register.
  • Subscribe my Feeds
  • Facebook
Encoding Queue:  x264  x265

Latest Episodes

Popular Movies and TV Shows

  • Rebel Moon - Part Two: The Scargiver
  • Late Night with the Devil
  • Elsbeth
  • Blood for Dust
  • So Help Me Todd
  • The Spiderwick Chronicles
  • Sugar
  • Young Sheldon
  • A Gentleman in Moscow
  • Asphalt City
  • Problemista
  • River Wild
  • Law & Order: Special Victims Unit
  • Manhunt
  • Ghosts
  • Ghostbusters: Frozen Empire
  • The Three Musketeers - Part II: Milady
  • The Reader
  • Star Trek: Discovery
  • American Horror Story
  • Family Guy
  • You Were Never Really Here
  • Godzilla x Kong: The New Empire
  • Dune: Part Two
  • The Good Doctor

Recent Comments

  • 23d1:

    ClicknUpload link is missing

  • yopo:

    NitroFlare's link is missing !!!

  • yopo:

    NitroFlare's link is missing !!!

  • yopo:

    NitroFlare's link is missing !!!
    Clicknupload's link is missing !!!

  • yopo:

    NitroFlare's link is missing !!!

  • dragonnightfire: I have tried contacting Rapid Rar to find out what is going on with the server maintainance. I am no...
  • dragonnightfire:

    RR links dead on 5 eps

  • Draveren: hi. can we solve this "server under maintenance" stuff, already? if back in the day i'd ke...
  • Majnon: The links are dead. Please re-upload
  • timt:

    Anyone have the movie "Shoot" (1976) to post?

  • Nightshade: Hey, it appears at least the RMTeam separate episodes and ION's packs for the first two seasons of t...
  • Bigfishguy:

    There's no free option to download this video. Can someone please upload it to clicknupload?

  • timt:

    Junk

  • timt:

    CAM Audio

  • timt:

    Hard Coded SUMS! Russian, I Think.

  • ubirattan:

    Mandem um Fikper, por favor.

  • kellym2: No answer yet for my query - why all the episodes "server under maintenance" on some episo...
  • Majnon:

    Rapidrar links are dead :(

  • Rake:

    Loads of "Server is under maintenance" with RR theese days...

Archives