Sign Up   |   Sign In  
The Woman in the WallRed Right HandLovely, Dark, and DeepMr Bates vs. The Post OfficeEasy StreetExpatsYoung SheldonAvatar: The Last AirbenderSo Help Me ToddTurtles Can FlyThe Heartbreak KidHistory of EvilMasters of the AirGhostsLaw & Order Toronto: Criminal IntentEarwormJenny Slate: Seasoned ProfessionalTiger StripesHaloHightownLaw & Order: Special Victims UnitCellphoneMoonedThe Last AirbenderConstellation

Announcements

02/08

2024

1

Comments

Sexy Beast S01E05 Trouble Is Real 1080p AMZN WEB-DL DDP5 1 H 264-NTb
[RR/NF/CU]
Size: 1.7GB mkv H264 (HIGH) / EAC3  HD  1920x1080

Sexy Beast
  • Sexy Beast (2024-)
  • Genre: Drama
  • Created By: Michael Caleo
  • Country: United States
  • Original Language: English
  • Original Network: Paramount+
  • Storyline: With their reputation growing across London, thieves Gal and Don are recruited by renowned criminal boss Teddy Bass for a high-stakes job. But as they continue to rise in the criminal world, they find their lives changed forever.
File Information
[img]http://lookpic.com/cdn/i2/t/0207202423233167-1.jpg[/img]
[img]http://lookpic.com/cdn/i2/t/0207202423233167-2.jpg[/img]
[img]http://lookpic.com/cdn/i2/t/0207202423233167-3.jpg[/img]

General
Unique ID                                : 243010438395410329869371018678050548004 (0xB6D21BA692774FF755714E934250E924)
Complete name                            : Sexy.Beast.S01E05.Trouble.Is.Real.1080p.AMZN.WEB-DL.DDP5.1.H.264-NTb.mkv
Format                                   : Matroska
Format version                           : Version 4
File size                                : 1.72 GiB
Duration                                 : 49 min 17 s
Overall bit rate                         : 4 998 kb/s
Frame rate                               : 23.976 FPS
Writing application                      : mkvmerge v81.0 ('Milliontown') 64-bit
Writing library                          : libebml v1.4.4 + libmatroska v1.7.1

Video
ID                                       : 1
Format                                   : AVC
Format/Info                              : Advanced Video Codec
Format profile                           : High@L4
Format settings                          : CABAC / 4 Ref Frames
Format settings, CABAC                   : Yes
Format settings, Reference frames        : 4 frames
Codec ID                                 : V_MPEG4/ISO/AVC
Duration                                 : 49 min 17 s
Bit rate mode                            : Constant
Bit rate                                 : 4 355 kb/s
Nominal bit rate                         : 10 000 kb/s
Width                                    : 1 920 pixels
Height                                   : 1 080 pixels
Display aspect ratio                     : 16:9
Frame rate mode                          : Constant
Frame rate                               : 23.976 (24000/1001) FPS
Color space                              : YUV
Chroma subsampling                       : 4:2:0
Bit depth                                : 8 bits
Scan type                                : Progressive
Bits/(Pixel*Frame)                       : 0.088
Stream size                              : 1.50 GiB (87%)
Default                                  : Yes
Forced                                   : No
Color range                              : Limited
Color primaries                          : BT.709
Transfer characteristics                 : BT.709
Matrix coefficients                      : BT.709

Audio
ID                                       : 2
Format                                   : E-AC-3
Format/Info                              : Enhanced AC-3
Commercial name                          : Dolby Digital Plus
Codec ID                                 : A_EAC3
Duration                                 : 49 min 17 s
Bit rate mode                            : Constant
Bit rate                                 : 640 kb/s
Channel(s)                               : 6 channels
Channel layout                           : L R C LFE Ls Rs
Sampling rate                            : 48.0 kHz
Frame rate                               : 31.250 FPS (1536 SPF)
Compression mode                         : Lossy
Stream size                              : 226 MiB (13%)
Language                                 : English (US)
Service kind                             : Complete Main
Default                                  : Yes
Forced                                   : No

Text #1
ID                                       : 3
Format                                   : UTF-8
Codec ID                                 : S_TEXT/UTF8
Codec ID/Info                            : UTF-8 Plain Text
Duration                                 : 47 min 36 s
Bit rate                                 : 65 b/s
Frame rate                               : 0.286 FPS
Count of elements                        : 817
Stream size                              : 23.0 KiB (0%)
Language                                 : English (US)
Default                                  : No
Forced                                   : No

Text #2
ID                                       : 4
Format                                   : UTF-8
Codec ID                                 : S_TEXT/UTF8
Codec ID/Info                            : UTF-8 Plain Text
Duration                                 : 47 min 48 s
Bit rate                                 : 74 b/s
Frame rate                               : 0.341 FPS
Count of elements                        : 978
Stream size                              : 26.0 KiB (0%)
Title                                    : SDH
Language                                 : English (US)
Default                                  : No
Forced                                   : No



Download
File Container: MKV
Video/Audio Codec: H264 (HIGH) EAC3
Video Resolution: 1920x1080

1 Response to "[RR/NF/CU] Sexy Beast S01E05 Trouble Is Real 1080p AMZN WEB-DL DDP5 1 H 264-NTb (1.7GB)"
02/08/24
12:55:39
ReadyPlayerOne

Thank You

Please Login to post a comment.
If you don't have any account, please Register.
  • Subscribe my Feeds
  • Facebook

Latest Episodes

Popular Movies and TV Shows

  • The Woman in the Wall
  • Red Right Hand
  • Lovely, Dark, and Deep
  • Mr Bates vs. The Post Office
  • Easy Street
  • Expats
  • Young Sheldon
  • Avatar: The Last Airbender
  • So Help Me Todd
  • Turtles Can Fly
  • The Heartbreak Kid
  • History of Evil
  • Masters of the Air
  • Ghosts
  • Law & Order Toronto: Criminal Intent
  • Earworm
  • Jenny Slate: Seasoned Professional
  • Tiger Stripes
  • Halo
  • Hightown
  • Law & Order: Special Victims Unit
  • Cellphone
  • Mooned
  • The Last Airbender
  • Constellation

Recent Comments

Archives