Sign Up   |   Sign In  
ShogunSex Before the InternetNinja KamuiLegend of the Lost LocketFantastic Four: Rise of the Silver SurferTenetBeacon 23ParishSaturday Night LiveBreaking Girl CodeScrambledSin City: A Dame to Kill ForImmoral WomenS.W.A.T.WillowBlue BloodsRiddle of FireYoung SheldonFalloutGrey's AnatomyStar Trek: DiscoveryPacific Rim: UprisingWhiplashT2 TrainspottingSugar

Announcements

02/27

2024

1

Comments

Shogun 2024 S01E01 Anjin 1080p DSNP WEB-DL DDP5 1 H 264-FLUX
[RR/NF]
Size: 3.5GB mkv H264 (HIGH) / EAC3  HD  1920x1080

Shogun
File Information
[img]http://lookpic.com/cdn/i2/t/0226202423455367-1.jpg[/img]
[img]http://lookpic.com/cdn/i2/t/0226202423455367-2.jpg[/img]
[img]http://lookpic.com/cdn/i2/t/0226202423455367-3.jpg[/img]

General
Unique ID                                : 96407358138255452569036443141681056335 (0x488761BCF97D4352A9B9B988312A0A4F)
Complete name                            : Shogun.2024.S01E01.Anjin.1080p.DSNP.WEB-DL.DDP5.1.H.264-FLUX.mkv
Format                                   : Matroska
Format version                           : Version 4
File size                                : 3.47 GiB
Duration                                 : 1 h 10 min
Overall bit rate mode                    : Variable
Overall bit rate                         : 7 069 kb/s
Frame rate                               : 24.000 FPS
Writing application                      : mkvmerge v79.0 ('Funeral Pyres') 64-bit
Writing library                          : libebml v1.4.4 + libmatroska v1.7.1

Video
ID                                       : 1
Format                                   : AVC
Format/Info                              : Advanced Video Codec
Format profile                           : High@L4
Format settings                          : CABAC / 4 Ref Frames
Format settings, CABAC                   : Yes
Format settings, Reference frames        : 4 frames
Codec ID                                 : V_MPEG4/ISO/AVC
Duration                                 : 1 h 10 min
Bit rate mode                            : Variable
Bit rate                                 : 6 811 kb/s
Maximum bit rate                         : 12.7 Mb/s
Width                                    : 1 920 pixels
Height                                   : 1 080 pixels
Display aspect ratio                     : 16:9
Frame rate mode                          : Constant
Frame rate                               : 24.000 FPS
Color space                              : YUV
Chroma subsampling                       : 4:2:0
Bit depth                                : 8 bits
Scan type                                : Progressive
Bits/(Pixel*Frame)                       : 0.137
Time code of first frame                 : 00:00:00:0000000000
Stream size                              : 3.34 GiB (96%)
Language                                 : English
Default                                  : Yes
Forced                                   : No
Color range                              : Limited
Color primaries                          : BT.709
Transfer characteristics                 : BT.709
Matrix coefficients                      : BT.709

Audio
ID                                       : 2
Format                                   : E-AC-3
Format/Info                              : Enhanced AC-3
Commercial name                          : Dolby Digital Plus
Codec ID                                 : A_EAC3
Duration                                 : 1 h 10 min
Bit rate mode                            : Constant
Bit rate                                 : 256 kb/s
Channel(s)                               : 6 channels
Channel layout                           : L R C LFE Ls Rs
Sampling rate                            : 48.0 kHz
Frame rate                               : 31.250 FPS (1536 SPF)
Compression mode                         : Lossy
Stream size                              : 129 MiB (4%)
Language                                 : English
Service kind                             : Complete Main
Default                                  : Yes
Forced                                   : No

Text #1
ID                                       : 3
Format                                   : UTF-8
Codec ID                                 : S_TEXT/UTF8
Codec ID/Info                            : UTF-8 Plain Text
Duration                                 : 1 h 8 min
Bit rate                                 : 21 b/s
Frame rate                               : 0.084 FPS
Count of elements                        : 344
Stream size                              : 10.9 KiB (0%)
Language                                 : English
Default                                  : No
Forced                                   : No

Text #2
ID                                       : 4
Format                                   : UTF-8
Codec ID                                 : S_TEXT/UTF8
Codec ID/Info                            : UTF-8 Plain Text
Duration                                 : 1 h 10 min
Bit rate                                 : 24 b/s
Frame rate                               : 0.109 FPS
Count of elements                        : 458
Stream size                              : 12.8 KiB (0%)
Title                                    : SDH
Language                                 : English
Default                                  : No
Forced                                   : No

Menu
01:07:42.333                             : en:Credits



Download
File Container: MKV
Video/Audio Codec: H264 (HIGH) EAC3
Video Resolution: 1920x1080

1 Response to "[RR/NF] Shogun 2024 S01E01 Anjin 1080p DSNP WEB-DL DDP5 1 H 264-FLUX (3.5GB)"
02/27/24
13:26:20
ReadyPlayerOne

Thank You

Please Login to post a comment.
If you don't have any account, please Register.
  • Subscribe my Feeds
  • Facebook
Encoding Queue:  x264  x265

Latest Episodes

Popular Movies and TV Shows

  • Shogun
  • Sex Before the Internet
  • Ninja Kamui
  • Legend of the Lost Locket
  • Fantastic Four: Rise of the Silver Surfer
  • Tenet
  • Beacon 23
  • Parish
  • Saturday Night Live
  • Breaking Girl Code
  • Scrambled
  • Sin City: A Dame to Kill For
  • Immoral Women
  • S.W.A.T.
  • Willow
  • Blue Bloods
  • Riddle of Fire
  • Young Sheldon
  • Fallout
  • Grey's Anatomy
  • Star Trek: Discovery
  • Pacific Rim: Uprising
  • Whiplash
  • T2 Trainspotting
  • Sugar

Recent Comments

  • mentalityx:

    Rad bloke

  • DownloadHostInspector:

    so far these RMTeam uploads always have a working link. DownloadHostInspector approved!

  • DownloadHostInspector:

    ah yes, this upload has a host that works. clicknupload. DownloadHostInspector approved!

  • DownloadHostInspector: Why are all the download hosts trash? none of them let you download it
  • Qua4ratic:

    clicknupload link plz

  • ppoo:

    Please, can you add "Real Time with Bill Maher S22E11" ??

  • theahtisham:

    Kindly upload Ep. 3 and 4 as well.

  • Kudzu: Update on sound issue, File's codec info says stereo but is only a the left channel If I switch i...
  • Admin:

    kang
    Getting error while encoding, sorry

Archives