Sign Up   |   Sign In  
Hundreds of BeaversDune: Part TwoAbba: How They Won EurovisionOpenHouse NYCAmerica's Backyard GoldTsukimichi: Moonlit FantasyThe SympathizerTrackerThe Great NorthModel HouseKurt Cobain: Moments That Shook MusicThe Batman vs. DraculaWhen Calls the HeartSullivan's CrossingBeacon 23The ChannelThere's Still TomorrowTo Die ForFalloutShogunParishThe Taste of ThingsTrinket BoxFantastic Four: Rise of the Silver SurferFBI

Announcements

02/27

2024

1

Comments

Shogun 2024 S01E01 Anjin 720p DSNP WEB-DL DDP5 1 H 264-FLUX
[RR/NF/CU]
Size: 1.7GB mkv H264 (HIGH) / EAC3  HD  1280x720

Shogun
File Information
[img]http://lookpic.com/cdn/i2/t/0226202423144115-1.jpg[/img]
[img]http://lookpic.com/cdn/i2/t/0226202423144115-2.jpg[/img]
[img]http://lookpic.com/cdn/i2/t/0226202423144115-3.jpg[/img]

General
Unique ID                                : 104409188283213461796792473760948141763 (0x4E8C7A6C8510E94A1DF5812AA531BEC3)
Complete name                            : Shogun.2024.S01E01.Anjin.720p.DSNP.WEB-DL.DDP5.1.H.264-FLUX.mkv
Format                                   : Matroska
Format version                           : Version 4
File size                                : 1.71 GiB
Duration                                 : 1 h 10 min
Overall bit rate mode                    : Variable
Overall bit rate                         : 3 484 kb/s
Frame rate                               : 24.000 FPS
Writing application                      : mkvmerge v79.0 ('Funeral Pyres') 64-bit
Writing library                          : libebml v1.4.4 + libmatroska v1.7.1

Video
ID                                       : 1
Format                                   : AVC
Format/Info                              : Advanced Video Codec
Format profile                           : High@L3.1
Format settings                          : CABAC / 4 Ref Frames
Format settings, CABAC                   : Yes
Format settings, Reference frames        : 4 frames
Codec ID                                 : V_MPEG4/ISO/AVC
Duration                                 : 1 h 10 min
Bit rate mode                            : Variable
Bit rate                                 : 3 226 kb/s
Maximum bit rate                         : 6 375 kb/s
Width                                    : 1 280 pixels
Height                                   : 720 pixels
Display aspect ratio                     : 16:9
Frame rate mode                          : Constant
Frame rate                               : 24.000 FPS
Color space                              : YUV
Chroma subsampling                       : 4:2:0
Bit depth                                : 8 bits
Scan type                                : Progressive
Bits/(Pixel*Frame)                       : 0.146
Time code of first frame                 : 00:00:00:0000000000
Stream size                              : 1.58 GiB (93%)
Language                                 : English
Default                                  : Yes
Forced                                   : No
Color range                              : Limited
Color primaries                          : BT.709
Transfer characteristics                 : BT.709
Matrix coefficients                      : BT.709

Audio
ID                                       : 2
Format                                   : E-AC-3
Format/Info                              : Enhanced AC-3
Commercial name                          : Dolby Digital Plus
Codec ID                                 : A_EAC3
Duration                                 : 1 h 10 min
Bit rate mode                            : Constant
Bit rate                                 : 256 kb/s
Channel(s)                               : 6 channels
Channel layout                           : L R C LFE Ls Rs
Sampling rate                            : 48.0 kHz
Frame rate                               : 31.250 FPS (1536 SPF)
Compression mode                         : Lossy
Stream size                              : 129 MiB (7%)
Language                                 : English
Service kind                             : Complete Main
Default                                  : Yes
Forced                                   : No

Text #1
ID                                       : 3
Format                                   : UTF-8
Codec ID                                 : S_TEXT/UTF8
Codec ID/Info                            : UTF-8 Plain Text
Duration                                 : 1 h 8 min
Bit rate                                 : 21 b/s
Frame rate                               : 0.084 FPS
Count of elements                        : 344
Stream size                              : 10.9 KiB (0%)
Language                                 : English
Default                                  : No
Forced                                   : No

Text #2
ID                                       : 4
Format                                   : UTF-8
Codec ID                                 : S_TEXT/UTF8
Codec ID/Info                            : UTF-8 Plain Text
Duration                                 : 1 h 10 min
Bit rate                                 : 24 b/s
Frame rate                               : 0.109 FPS
Count of elements                        : 458
Stream size                              : 12.8 KiB (0%)
Title                                    : SDH
Language                                 : English
Default                                  : No
Forced                                   : No

Menu
01:07:42.333                             : en:Credits



Download
File Container: MKV
Video/Audio Codec: H264 (HIGH) EAC3
Video Resolution: 1280x720

1 Response to "[RR/NF/CU] Shogun 2024 S01E01 Anjin 720p DSNP WEB-DL DDP5 1 H 264-FLUX (1.7GB)"
02/27/24
11:04:27
ReadyPlayerOne

Thank You

Please Login to post a comment.
If you don't have any account, please Register.
  • Subscribe my Feeds
  • Facebook
Encoding Queue:  x264  x265

Latest Episodes

Popular Movies and TV Shows

  • Hundreds of Beavers
  • Dune: Part Two
  • Abba: How They Won Eurovision
  • OpenHouse NYC
  • America's Backyard Gold
  • Tsukimichi: Moonlit Fantasy
  • The Sympathizer
  • Tracker
  • The Great North
  • Model House
  • Kurt Cobain: Moments That Shook Music
  • The Batman vs. Dracula
  • When Calls the Heart
  • Sullivan's Crossing
  • Beacon 23
  • The Channel
  • There's Still Tomorrow
  • To Die For
  • Fallout
  • Shogun
  • Parish
  • The Taste of Things
  • Trinket Box
  • Fantastic Four: Rise of the Silver Surfer
  • FBI

Recent Comments

  • Bud:

    Are you ever going to put up Thursday's episode with Liev Schreiber?

  • alp-engin:

    When will that maintenance be over? Please...

  • mentalityx:

    Rad bloke

  • DownloadHostInspector:

    so far these RMTeam uploads always have a working link. DownloadHostInspector approved!

  • DownloadHostInspector:

    ah yes, this upload has a host that works. clicknupload. DownloadHostInspector approved!

  • DownloadHostInspector: Why are all the download hosts trash? none of them let you download it
  • Qua4ratic:

    clicknupload link plz

  • ppoo:

    Please, can you add "Real Time with Bill Maher S22E11" ??

  • theahtisham:

    Kindly upload Ep. 3 and 4 as well.

Archives