Sign Up   |   Sign In  
Young SheldonElsbethLaw & Order Toronto: Criminal IntentThe ReaderBarbarianScreamGhostsAmerican Horror StoryLaw & OrderYou Were Never Really HereLie with MeGreen LanternStar Trek: DiscoveryThe Three Musketeers - Part II: MiladyFamily GuyGhostbusters: Frozen EmpireChuckyGodzilla x Kong: The New EmpireWalkerAnimal ControlThe Bold and the BeautifulThe InseparablesJokerLa margeFBI

Announcements

02/27

2024

1

Comments

Shogun 2024 S01E02 Servants of Two Masters 720p DSNP WEB-DL DD 5 1 H 264-playWEB
[RR/NF/CU]
Size: 1.4GB mkv H264 (HIGH) / EAC3  HD  1280x720

Shogun
File Information
[img]http://lookpic.com/cdn/i2/t/0226202423051166-1.jpg[/img]
[img]http://lookpic.com/cdn/i2/t/0226202423051166-2.jpg[/img]
[img]http://lookpic.com/cdn/i2/t/0226202423051166-3.jpg[/img]

General
Unique ID                                : 108929973671767002882848385110456681404 (0x51F3265A2EBD6818DFA5BD3E804843BC)
Complete name                            : Shogun.2024.S01E02.Servants.of.Two.Masters.720p.DSNP.WEB-DL.DD.5.1.H.264-playWEB.mkv
Format                                   : Matroska
Format version                           : Version 4
File size                                : 1.39 GiB
Duration                                 : 58 min 29 s
Overall bit rate mode                    : Variable
Overall bit rate                         : 3 407 kb/s
Frame rate                               : 24.000 FPS
Writing application                      : mkvmerge v82.0 ('I'm The President') 64-bit
Writing library                          : libebml v1.4.5 + libmatroska v1.7.1

Video
ID                                       : 1
Format                                   : AVC
Format/Info                              : Advanced Video Codec
Format profile                           : High@L3.1
Format settings                          : CABAC / 4 Ref Frames
Format settings, CABAC                   : Yes
Format settings, Reference frames        : 4 frames
Codec ID                                 : V_MPEG4/ISO/AVC
Duration                                 : 58 min 29 s
Bit rate mode                            : Variable
Bit rate                                 : 3 146 kb/s
Maximum bit rate                         : 6 375 kb/s
Width                                    : 1 280 pixels
Height                                   : 720 pixels
Display aspect ratio                     : 16:9
Frame rate mode                          : Constant
Frame rate                               : 24.000 FPS
Color space                              : YUV
Chroma subsampling                       : 4:2:0
Bit depth                                : 8 bits
Scan type                                : Progressive
Bits/(Pixel*Frame)                       : 0.142
Time code of first frame                 : 00:00:00:0000000000
Stream size                              : 1.29 GiB (92%)
Language                                 : English
Default                                  : Yes
Forced                                   : No
Color range                              : Limited
Color primaries                          : BT.709
Transfer characteristics                 : BT.709
Matrix coefficients                      : BT.709

Audio
ID                                       : 2
Format                                   : E-AC-3
Format/Info                              : Enhanced AC-3
Commercial name                          : Dolby Digital Plus
Codec ID                                 : A_EAC3
Duration                                 : 58 min 29 s
Bit rate mode                            : Constant
Bit rate                                 : 256 kb/s
Channel(s)                               : 6 channels
Channel layout                           : L R C LFE Ls Rs
Sampling rate                            : 48.0 kHz
Frame rate                               : 31.250 FPS (1536 SPF)
Compression mode                         : Lossy
Stream size                              : 107 MiB (8%)
Language                                 : English
Service kind                             : Complete Main
Default                                  : Yes
Forced                                   : No

Text #1
ID                                       : 3
Format                                   : UTF-8
Codec ID                                 : S_TEXT/UTF8
Codec ID/Info                            : UTF-8 Plain Text
Duration                                 : 56 min 10 s
Bit rate                                 : 28 b/s
Frame rate                               : 0.113 FPS
Count of elements                        : 381
Stream size                              : 11.7 KiB (0%)
Title                                    : Forced
Language                                 : English
Default                                  : Yes
Forced                                   : Yes

Text #2
ID                                       : 4
Format                                   : UTF-8
Codec ID                                 : S_TEXT/UTF8
Codec ID/Info                            : UTF-8 Plain Text
Duration                                 : 56 min 24 s
Bit rate                                 : 54 b/s
Frame rate                               : 0.206 FPS
Count of elements                        : 697
Stream size                              : 22.4 KiB (0%)
Language                                 : English
Default                                  : No
Forced                                   : No

Text #3
ID                                       : 5
Format                                   : UTF-8
Codec ID                                 : S_TEXT/UTF8
Codec ID/Info                            : UTF-8 Plain Text
Duration                                 : 56 min 24 s
Bit rate                                 : 60 b/s
Frame rate                               : 0.227 FPS
Count of elements                        : 769
Stream size                              : 25.1 KiB (0%)
Title                                    : SDH
Language                                 : English
Default                                  : No
Forced                                   : No

Text #4
ID                                       : 6
Format                                   : UTF-8
Codec ID                                 : S_TEXT/UTF8
Codec ID/Info                            : UTF-8 Plain Text
Duration                                 : 58 min 10 s
Bit rate                                 : 56 b/s
Frame rate                               : 0.187 FPS
Count of elements                        : 653
Stream size                              : 24.3 KiB (0%)
Language                                 : Czech
Default                                  : No
Forced                                   : No

Text #5
ID                                       : 7
Format                                   : UTF-8
Codec ID                                 : S_TEXT/UTF8
Codec ID/Info                            : UTF-8 Plain Text
Duration                                 : 58 min 10 s
Bit rate                                 : 51 b/s
Frame rate                               : 0.199 FPS
Count of elements                        : 695
Stream size                              : 22.0 KiB (0%)
Language                                 : Danish
Default                                  : No
Forced                                   : No

Text #6
ID                                       : 8
Format                                   : UTF-8
Codec ID                                 : S_TEXT/UTF8
Codec ID/Info                            : UTF-8 Plain Text
Duration                                 : 58 min 10 s
Bit rate                                 : 59 b/s
Frame rate                               : 0.198 FPS
Count of elements                        : 690
Stream size                              : 25.2 KiB (0%)
Language                                 : German
Default                                  : No
Forced                                   : No

Text #7
ID                                       : 9
Format                                   : UTF-8
Codec ID                                 : S_TEXT/UTF8
Codec ID/Info                            : UTF-8 Plain Text
Duration                                 : 58 min 10 s
Bit rate                                 : 96 b/s
Frame rate                               : 0.193 FPS
Count of elements                        : 675
Stream size                              : 41.0 KiB (0%)
Language                                 : Greek
Default                                  : No
Forced                                   : No

Text #8
ID                                       : 10
Format                                   : UTF-8
Codec ID                                 : S_TEXT/UTF8
Codec ID/Info                            : UTF-8 Plain Text
Duration                                 : 58 min 10 s
Bit rate                                 : 52 b/s
Frame rate                               : 0.191 FPS
Count of elements                        : 666
Stream size                              : 22.4 KiB (0%)
Title                                    : Latin America
Language                                 : Spanish (Latin America)
Default                                  : No
Forced                                   : No

Text #9
ID                                       : 11
Format                                   : UTF-8
Codec ID                                 : S_TEXT/UTF8
Codec ID/Info                            : UTF-8 Plain Text
Duration                                 : 58 min 10 s
Bit rate                                 : 53 b/s
Frame rate                               : 0.199 FPS
Count of elements                        : 694
Stream size                              : 22.9 KiB (0%)
Language                                 : Spanish (ES)
Default                                  : No
Forced                                   : No

Text #10
ID                                       : 12
Format                                   : UTF-8
Codec ID                                 : S_TEXT/UTF8
Codec ID/Info                            : UTF-8 Plain Text
Duration                                 : 58 min 10 s
Bit rate                                 : 54 b/s
Frame rate                               : 0.179 FPS
Count of elements                        : 626
Stream size                              : 23.4 KiB (0%)
Language                                 : Finnish
Default                                  : No
Forced                                   : No

Text #11
ID                                       : 13
Format                                   : UTF-8
Codec ID                                 : S_TEXT/UTF8
Codec ID/Info                            : UTF-8 Plain Text
Duration                                 : 58 min 10 s
Bit rate                                 : 57 b/s
Frame rate                               : 0.195 FPS
Count of elements                        : 680
Stream size                              : 24.4 KiB (0%)
Language                                 : French (FR)
Default                                  : No
Forced                                   : No

Text #12
ID                                       : 14
Format                                   : UTF-8
Codec ID                                 : S_TEXT/UTF8
Codec ID/Info                            : UTF-8 Plain Text
Duration                                 : 58 min 10 s
Bit rate                                 : 56 b/s
Frame rate                               : 0.197 FPS
Count of elements                        : 686
Stream size                              : 24.2 KiB (0%)
Language                                 : Hungarian
Default                                  : No
Forced                                   : No

Text #13
ID                                       : 15
Format                                   : UTF-8
Codec ID                                 : S_TEXT/UTF8
Codec ID/Info                            : UTF-8 Plain Text
Duration                                 : 58 min 10 s
Bit rate                                 : 53 b/s
Frame rate                               : 0.192 FPS
Count of elements                        : 669
Stream size                              : 22.7 KiB (0%)
Language                                 : Italian
Default                                  : No
Forced                                   : No

Text #14
ID                                       : 16
Format                                   : UTF-8
Codec ID                                 : S_TEXT/UTF8
Codec ID/Info                            : UTF-8 Plain Text
Duration                                 : 56 min 23 s
Bit rate                                 : 77 b/s
Frame rate                               : 0.224 FPS
Count of elements                        : 758
Stream size                              : 32.2 KiB (0%)
Language                                 : Japanese
Default                                  : No
Forced                                   : No

Text #15
ID                                       : 17
Format                                   : UTF-8
Codec ID                                 : S_TEXT/UTF8
Codec ID/Info                            : UTF-8 Plain Text
Duration                                 : 58 min 10 s
Bit rate                                 : 66 b/s
Frame rate                               : 0.200 FPS
Count of elements                        : 698
Stream size                              : 28.4 KiB (0%)
Language                                 : Korean
Default                                  : No
Forced                                   : No

Text #16
ID                                       : 18
Format                                   : UTF-8
Codec ID                                 : S_TEXT/UTF8
Codec ID/Info                            : UTF-8 Plain Text
Duration                                 : 58 min 10 s
Bit rate                                 : 54 b/s
Frame rate                               : 0.148 FPS
Count of elements                        : 517
Stream size                              : 23.0 KiB (0%)
Language                                 : Dutch
Default                                  : No
Forced                                   : No

Text #17
ID                                       : 19
Format                                   : UTF-8
Codec ID                                 : S_TEXT/UTF8
Codec ID/Info                            : UTF-8 Plain Text
Duration                                 : 58 min 10 s
Bit rate                                 : 51 b/s
Frame rate                               : 0.194 FPS
Count of elements                        : 677
Stream size                              : 21.7 KiB (0%)
Language                                 : Norwegian
Default                                  : No
Forced                                   : No

Text #18
ID                                       : 20
Format                                   : UTF-8
Codec ID                                 : S_TEXT/UTF8
Codec ID/Info                            : UTF-8 Plain Text
Duration                                 : 58 min 10 s
Bit rate                                 : 53 b/s
Frame rate                               : 0.190 FPS
Count of elements                        : 664
Stream size                              : 23.0 KiB (0%)
Language                                 : Polish
Default                                  : No
Forced                                   : No

Text #19
ID                                       : 21
Format                                   : UTF-8
Codec ID                                 : S_TEXT/UTF8
Codec ID/Info                            : UTF-8 Plain Text
Duration                                 : 56 min 24 s
Bit rate                                 : 53 b/s
Frame rate                               : 0.197 FPS
Count of elements                        : 666
Stream size                              : 22.1 KiB (0%)
Title                                    : Brazil
Language                                 : Portuguese (BR)
Default                                  : No
Forced                                   : No

Text #20
ID                                       : 22
Format                                   : UTF-8
Codec ID                                 : S_TEXT/UTF8
Codec ID/Info                            : UTF-8 Plain Text
Duration                                 : 58 min 10 s
Bit rate                                 : 54 b/s
Frame rate                               : 0.199 FPS
Count of elements                        : 695
Stream size                              : 23.0 KiB (0%)
Language                                 : Portuguese (PT)
Default                                  : No
Forced                                   : No

Text #21
ID                                       : 23
Format                                   : UTF-8
Codec ID                                 : S_TEXT/UTF8
Codec ID/Info                            : UTF-8 Plain Text
Duration                                 : 58 min 10 s
Bit rate                                 : 54 b/s
Frame rate                               : 0.160 FPS
Count of elements                        : 558
Stream size                              : 23.1 KiB (0%)
Language                                 : Romanian
Default                                  : No
Forced                                   : No

Text #22
ID                                       : 24
Format                                   : UTF-8
Codec ID                                 : S_TEXT/UTF8
Codec ID/Info                            : UTF-8 Plain Text
Duration                                 : 58 min 10 s
Bit rate                                 : 51 b/s
Frame rate                               : 0.199 FPS
Count of elements                        : 693
Stream size                              : 22.1 KiB (0%)
Language                                 : Slovak
Default                                  : No
Forced                                   : No

Text #23
ID                                       : 25
Format                                   : UTF-8
Codec ID                                 : S_TEXT/UTF8
Codec ID/Info                            : UTF-8 Plain Text
Duration                                 : 58 min 10 s
Bit rate                                 : 52 b/s
Frame rate                               : 0.183 FPS
Count of elements                        : 639
Stream size                              : 22.2 KiB (0%)
Language                                 : Swedish
Default                                  : No
Forced                                   : No

Text #24
ID                                       : 26
Format                                   : UTF-8
Codec ID                                 : S_TEXT/UTF8
Codec ID/Info                            : UTF-8 Plain Text
Duration                                 : 58 min 10 s
Bit rate                                 : 54 b/s
Frame rate                               : 0.198 FPS
Count of elements                        : 691
Stream size                              : 23.3 KiB (0%)
Language                                 : Turkish
Default                                  : No
Forced                                   : No

Text #25
ID                                       : 27
Format                                   : UTF-8
Codec ID                                 : S_TEXT/UTF8
Codec ID/Info                            : UTF-8 Plain Text
Duration                                 : 58 min 10 s
Bit rate                                 : 49 b/s
Frame rate                               : 0.199 FPS
Count of elements                        : 695
Stream size                              : 21.1 KiB (0%)
Title                                    : Traditional
Language                                 : Chinese (Traditional)
Default                                  : No
Forced                                   : No

Text #26
ID                                       : 28
Format                                   : UTF-8
Codec ID                                 : S_TEXT/UTF8
Codec ID/Info                            : UTF-8 Plain Text
Duration                                 : 56 min 23 s
Bit rate                                 : 78 b/s
Frame rate                               : 0.224 FPS
Count of elements                        : 758
Stream size                              : 32.3 KiB (0%)
Title                                    : SDH
Language                                 : Japanese
Default                                  : No
Forced                                   : No

Menu
00:00:09.083                             : en:Recap
00:08:33.167                             : en:Chapter 02
00:07:03.125                             : en:Intro
00:56:52.667                             : en:Credits



Download
File Container: MKV
Video/Audio Codec: H264 (HIGH) EAC3
Video Resolution: 1280x720

1 Response to "[RR/NF/CU] Shogun 2024 S01E02 Servants of Two Masters 720p DSNP WEB-DL DD 5 1 H 264-playWEB (1.4GB)"
02/27/24
11:08:27
ReadyPlayerOne

Thank You

Please Login to post a comment.
If you don't have any account, please Register.
  • Subscribe my Feeds
  • Facebook
Encoding Queue:  x264  x265

Latest Episodes

Popular Movies and TV Shows

  • Young Sheldon
  • Elsbeth
  • Law & Order Toronto: Criminal Intent
  • The Reader
  • Barbarian
  • Scream
  • Ghosts
  • American Horror Story
  • Law & Order
  • You Were Never Really Here
  • Lie with Me
  • Green Lantern
  • Star Trek: Discovery
  • The Three Musketeers - Part II: Milady
  • Family Guy
  • Ghostbusters: Frozen Empire
  • Chucky
  • Godzilla x Kong: The New Empire
  • Walker
  • Animal Control
  • The Bold and the Beautiful
  • The Inseparables
  • Joker
  • La marge
  • FBI

Recent Comments

  • Draveren: hi. can we solve this "server under maintenance" stuff, already? if back in the day i'd ke...
  • Majnon: The links are dead. Please re-upload
  • timt:

    Anyone have the movie "Shoot" (1976) to post?

  • Nightshade: Hey, it appears at least the RMTeam separate episodes and ION's packs for the first two seasons of t...
  • Bigfishguy:

    There's no free option to download this video. Can someone please upload it to clicknupload?

  • timt:

    Junk

  • timt:

    CAM Audio

  • timt:

    Hard Coded SUMS! Russian, I Think.

  • ubirattan:

    Mandem um Fikper, por favor.

  • kellym2: No answer yet for my query - why all the episodes "server under maintenance" on some episo...
  • Majnon:

    Rapidrar links are dead :(

  • Rake:

    Loads of "Server is under maintenance" with RR theese days...

  • kellym2: Why am I getting "Server is in maintenance mode" on some episodes of a series and not on o...
  • Bud:

    Are you ever going to put up Thursday's episode with Liev Schreiber?

Archives