Sign Up   |   Sign In  
ShogunThe Taste of ThingsA Story About a Grandpa and Grandma Who Returned Back to Their YouthLegend of the Lost LocketThe BeekeeperRuPaul's Drag RaceBeacon 23ParishSaturday Night LiveFantastic Four: Rise of the Silver SurferTenetSin City: A Dame to Kill ForImmoral WomenWillowScrambledS.W.A.T.Young SheldonNinja KamuiFalloutBlue BloodsGrey's AnatomyRiddle of FirePacific Rim: UprisingThe War on ChildrenSugar

Announcements

02/27

2024

1

Comments

Shogun 2024 S01E02 Servants of Two Masters 720p DSNP WEB-DL DDP5 1 H 264-FLUX
[RR/NF/CU]
Size: 1.4GB mkv H264 (HIGH) / EAC3  HD  1280x720

Shogun
File Information
[img]http://lookpic.com/cdn/i2/t/0226202423542932-1.jpg[/img]
[img]http://lookpic.com/cdn/i2/t/0226202423542932-2.jpg[/img]
[img]http://lookpic.com/cdn/i2/t/0226202423542932-3.jpg[/img]

General
Unique ID                                : 34750736520344386766373899825970737445 (0x1A24BF977F1F56DD49C2C1BD4708F125)
Complete name                            : Shogun.2024.S01E02.Servants.of.Two.Masters.720p.DSNP.WEB-DL.DDP5.1.H.264-FLUX.mkv
Format                                   : Matroska
Format version                           : Version 4
File size                                : 1.43 GiB
Duration                                 : 59 min 54 s
Overall bit rate mode                    : Variable
Overall bit rate                         : 3 423 kb/s
Frame rate                               : 24.000 FPS
Writing application                      : mkvmerge v79.0 ('Funeral Pyres') 64-bit
Writing library                          : libebml v1.4.4 + libmatroska v1.7.1

Video
ID                                       : 1
Format                                   : AVC
Format/Info                              : Advanced Video Codec
Format profile                           : High@L3.1
Format settings                          : CABAC / 4 Ref Frames
Format settings, CABAC                   : Yes
Format settings, Reference frames        : 4 frames
Codec ID                                 : V_MPEG4/ISO/AVC
Duration                                 : 59 min 54 s
Bit rate mode                            : Variable
Bit rate                                 : 3 165 kb/s
Maximum bit rate                         : 6 375 kb/s
Width                                    : 1 280 pixels
Height                                   : 720 pixels
Display aspect ratio                     : 16:9
Frame rate mode                          : Constant
Frame rate                               : 24.000 FPS
Color space                              : YUV
Chroma subsampling                       : 4:2:0
Bit depth                                : 8 bits
Scan type                                : Progressive
Bits/(Pixel*Frame)                       : 0.143
Time code of first frame                 : 00:00:00:0000000000
Stream size                              : 1.32 GiB (92%)
Language                                 : English
Default                                  : Yes
Forced                                   : No
Color range                              : Limited
Color primaries                          : BT.709
Transfer characteristics                 : BT.709
Matrix coefficients                      : BT.709

Audio
ID                                       : 2
Format                                   : E-AC-3
Format/Info                              : Enhanced AC-3
Commercial name                          : Dolby Digital Plus
Codec ID                                 : A_EAC3
Duration                                 : 59 min 54 s
Bit rate mode                            : Constant
Bit rate                                 : 256 kb/s
Channel(s)                               : 6 channels
Channel layout                           : L R C LFE Ls Rs
Sampling rate                            : 48.0 kHz
Frame rate                               : 31.250 FPS (1536 SPF)
Compression mode                         : Lossy
Stream size                              : 110 MiB (7%)
Language                                 : English
Service kind                             : Complete Main
Default                                  : Yes
Forced                                   : No

Text #1
ID                                       : 3
Format                                   : UTF-8
Codec ID                                 : S_TEXT/UTF8
Codec ID/Info                            : UTF-8 Plain Text
Duration                                 : 59 min 21 s
Bit rate                                 : 25 b/s
Frame rate                               : 0.105 FPS
Count of elements                        : 375
Stream size                              : 11.0 KiB (0%)
Language                                 : English
Default                                  : No
Forced                                   : No

Text #2
ID                                       : 4
Format                                   : UTF-8
Codec ID                                 : S_TEXT/UTF8
Codec ID/Info                            : UTF-8 Plain Text
Duration                                 : 59 min 33 s
Bit rate                                 : 28 b/s
Frame rate                               : 0.126 FPS
Count of elements                        : 450
Stream size                              : 12.4 KiB (0%)
Title                                    : SDH
Language                                 : English
Default                                  : No
Forced                                   : No



Download
File Container: MKV
Video/Audio Codec: H264 (HIGH) EAC3
Video Resolution: 1280x720

1 Response to "[RR/NF/CU] Shogun 2024 S01E02 Servants of Two Masters 720p DSNP WEB-DL DDP5 1 H 264-FLUX (1.4GB)"
02/27/24
11:08:51
ReadyPlayerOne

Thank You

Please Login to post a comment.
If you don't have any account, please Register.
  • Subscribe my Feeds
  • Facebook
Encoding Queue:  x264  x265

Latest Episodes

Popular Movies and TV Shows

  • Shogun
  • The Taste of Things
  • A Story About a Grandpa and Grandma Who Returned Back to Their Youth
  • Legend of the Lost Locket
  • The Beekeeper
  • RuPaul's Drag Race
  • Beacon 23
  • Parish
  • Saturday Night Live
  • Fantastic Four: Rise of the Silver Surfer
  • Tenet
  • Sin City: A Dame to Kill For
  • Immoral Women
  • Willow
  • Scrambled
  • S.W.A.T.
  • Young Sheldon
  • Ninja Kamui
  • Fallout
  • Blue Bloods
  • Grey's Anatomy
  • Riddle of Fire
  • Pacific Rim: Uprising
  • The War on Children
  • Sugar

Recent Comments

  • mentalityx:

    Rad bloke

  • DownloadHostInspector:

    so far these RMTeam uploads always have a working link. DownloadHostInspector approved!

  • DownloadHostInspector:

    ah yes, this upload has a host that works. clicknupload. DownloadHostInspector approved!

  • DownloadHostInspector: Why are all the download hosts trash? none of them let you download it
  • Qua4ratic:

    clicknupload link plz

  • ppoo:

    Please, can you add "Real Time with Bill Maher S22E11" ??

  • theahtisham:

    Kindly upload Ep. 3 and 4 as well.

  • Kudzu: Update on sound issue, File's codec info says stereo but is only a the left channel If I switch i...
  • Admin:

    kang
    Getting error while encoding, sorry

Archives