Sign Up   |   Sign In  
Daaaaaali!Break PointReady, Set, LoveMy Adventures with SupermanYou Can Live ForeverSatan's ChildrenMayor of KingstownInterview with the VampireHotel CocaineOctopussyLook to the LightFramed by My HusbandBilly the KidLadies in BlackThe Loud HouseKung Fu HustleLicence to KillThere's Something About MaryWWE NXTWalkerThe Bold and the BeautifulVice News Presents: Mass Shooting AmericaMy Sexual Abuse: The SitcomInside Out 2The Daily Show

Announcements

05/25

2024

No

Comments

Shoresy S03E02 Charlottetown Reds 1080p AMZN WEB-DL DDP5 1 H 264-NTb
[RR/NF/CU]
Size: 772MB mkv H264 (HIGH) / EAC3  HD  1920x1080

Shoresy
File Information
[img]http://lookpic.com/cdn/i2/t/0525202417494510-1.jpg[/img]
[img]http://lookpic.com/cdn/i2/t/0525202417494510-2.jpg[/img]
[img]http://lookpic.com/cdn/i2/t/0525202417494510-3.jpg[/img]

General
Unique ID                                : 49854262611406006589253494634544559126 (0x258194EBB962535D7F08BB66D352F416)
Complete name                            : Shoresy S03E02 Charlottetown Reds 1080p AMZN WEB-DL DDP5 1 H 264-NTb.mkv
Format                                   : Matroska
Format version                           : Version 4
File size                                : 773 MiB
Duration                                 : 20 min 41 s
Overall bit rate                         : 5 222 kb/s
Frame rate                               : 23.976 FPS
Writing application                      : mkvmerge v84.0 ('Sleeper') 64-bit
Writing library                          : libebml v1.4.5 + libmatroska v1.7.1

Video
ID                                       : 1
Format                                   : AVC
Format/Info                              : Advanced Video Codec
Format profile                           : High@L4
Format settings                          : CABAC / 4 Ref Frames
Format settings, CABAC                   : Yes
Format settings, Reference frames        : 4 frames
Codec ID                                 : V_MPEG4/ISO/AVC
Duration                                 : 20 min 41 s
Bit rate mode                            : Constant
Bit rate                                 : 4 579 kb/s
Nominal bit rate                         : 10 000 kb/s
Width                                    : 1 920 pixels
Height                                   : 1 080 pixels
Display aspect ratio                     : 16:9
Frame rate mode                          : Constant
Frame rate                               : 23.976 (24000/1001) FPS
Color space                              : YUV
Chroma subsampling                       : 4:2:0
Bit depth                                : 8 bits
Scan type                                : Progressive
Bits/(Pixel*Frame)                       : 0.092
Stream size                              : 678 MiB (88%)
Default                                  : Yes
Forced                                   : No
Color range                              : Limited
Color primaries                          : BT.709
Transfer characteristics                 : BT.709
Matrix coefficients                      : BT.709

Audio
ID                                       : 2
Format                                   : E-AC-3
Format/Info                              : Enhanced AC-3
Commercial name                          : Dolby Digital Plus
Codec ID                                 : A_EAC3
Duration                                 : 20 min 41 s
Bit rate mode                            : Constant
Bit rate                                 : 640 kb/s
Channel(s)                               : 6 channels
Channel layout                           : L R C LFE Ls Rs
Sampling rate                            : 48.0 kHz
Frame rate                               : 31.250 FPS (1536 SPF)
Compression mode                         : Lossy
Delay relative to video                  : 16 ms
Stream size                              : 94.7 MiB (12%)
Language                                 : English (US)
Service kind                             : Complete Main
Default                                  : Yes
Forced                                   : No

Text #1
ID                                       : 3
Format                                   : UTF-8
Codec ID                                 : S_TEXT/UTF8
Codec ID/Info                            : UTF-8 Plain Text
Duration                                 : 19 min 0 s
Bit rate                                 : 122 b/s
Frame rate                               : 0.401 FPS
Count of elements                        : 458
Stream size                              : 17.0 KiB (0%)
Language                                 : English (US)
Default                                  : No
Forced                                   : No

Text #2
ID                                       : 4
Format                                   : UTF-8
Codec ID                                 : S_TEXT/UTF8
Codec ID/Info                            : UTF-8 Plain Text
Duration                                 : 19 min 27 s
Bit rate                                 : 126 b/s
Frame rate                               : 0.420 FPS
Count of elements                        : 490
Stream size                              : 18.1 KiB (0%)
Title                                    : SDH
Language                                 : English (US)
Default                                  : No
Forced                                   : No



Download
File Container: MKV
Video/Audio Codec: H264 (HIGH) EAC3
Video Resolution: 1920x1080
Please Login to post a comment.
If you don't have any account, please Register.
  • Subscribe my Feeds
  • Facebook
Encoding Queue:  x264  x265

Latest Episodes

Popular Movies and TV Shows

  • Daaaaaali!
  • Break Point
  • Ready, Set, Love
  • My Adventures with Superman
  • You Can Live Forever
  • Satan's Children
  • Mayor of Kingstown
  • Interview with the Vampire
  • Hotel Cocaine
  • Octopussy
  • Look to the Light
  • Framed by My Husband
  • Billy the Kid
  • Ladies in Black
  • The Loud House
  • Kung Fu Hustle
  • Licence to Kill
  • There's Something About Mary
  • WWE NXT
  • Walker
  • The Bold and the Beautiful
  • Vice News Presents: Mass Shooting America
  • My Sexual Abuse: The Sitcom
  • Inside Out 2
  • The Daily Show

Recent Comments

Archives