Sign Up   |   Sign In  

Announcements

Want to support us?
Buy a RapidRAR account from our resellers:
Buy or renew a NitroFlare account via THIS LINK
We'll stop uploading files to Uploaded.net in December 2017.

04/20

2017

No

Comments

Shots Fired S01E05 1080p WEB-DL DD5 1 H264-RARBG
[RR/NF/UL/UR]
Size: 1.7GB mkv H264 (HIGH) / AC3  HD  1920x1080

Shots Fired
Click on the image to see full size
[RR/NF/UL/UR] Shots Fired S01E05 1080p WEB-DL DD5 1 H264-RARBG (1.7GB) - Snapshot 1
File Information
[URL=http://imagecurl.com/viewer.php?file=09311206000201272126.png][IMG]http://imagecurl.com/images/09311206000201272126_thumb.png[/IMG][/URL]
[URL=http://imagecurl.com/viewer.php?file=09926871594538999559.png][IMG]http://imagecurl.com/images/09926871594538999559_thumb.png[/IMG][/URL]
[URL=http://imagecurl.com/viewer.php?file=78866627808433837788.png][IMG]http://imagecurl.com/images/78866627808433837788_thumb.png[/IMG][/URL]
[URL=http://imagecurl.com/viewer.php?file=16574352090035147411.png][IMG]http://imagecurl.com/images/16574352090035147411_thumb.png[/IMG][/URL]
[URL=http://imagecurl.com/viewer.php?file=91655264679543512253.png][IMG]http://imagecurl.com/images/91655264679543512253_thumb.png[/IMG][/URL]
[URL=http://imagecurl.com/viewer.php?file=13483776170192445831.png][IMG]http://imagecurl.com/images/13483776170192445831_thumb.png[/IMG][/URL]



[mediainfo]
Video
ID                                       : 1
Format                                   : AVC
Format/Info                              : Advanced Video Codec
Format profile                           : [email protected]
Format settings, CABAC                   : Yes
Format settings, ReFrames                : 4 frames
Codec ID                                 : V_MPEG4/ISO/AVC
Duration                                 : 43mn 59s
Bit rate                                 : 5 118 Kbps
Width                                    : 1 920 pixels
Height                                   : 1 080 pixels
Display aspect ratio                     : 16:9
Frame rate mode                          : Constant
Frame rate                               : 23.976 (24000/1001) fps
Color space                              : YUV
Chroma subsampling                       : 4:2:0
Bit depth                                : 8 bits
Scan type                                : Progressive
Bits/(Pixel*Frame)                       : 0.103
Stream size                              : 1.57 GiB (91%)
Title                                    : Shots.Fired.S01E05.1080p.WEB-DL.DD5.1.H264-RARBG
Language                                 : English
Default                                  : Yes
Forced                                   : No
Color range                              : Limited
Color primaries                          : BT.709
Transfer characteristics                 : BT.709
Matrix coefficients                      : BT.709

Audio
ID                                       : 2
Format                                   : AC-3
Format/Info                              : Audio Coding 3
Mode extension                           : CM (complete main)
Format settings, Endianness              : Big
Codec ID                                 : A_AC3
Duration                                 : 43mn 59s
Bit rate mode                            : Constant
Bit rate                                 : 384 Kbps
Channel(s)                               : 6 channels
Channel positions                        : Front: L C R, Side: L R, LFE
Sampling rate                            : 48.0 KHz
Frame rate                               : 31.250 fps (1536 spf)
Compression mode                         : Lossy
Stream size                              : 121 MiB (7%)
Title                                    : Shots.Fired.S01E05.1080p.WEB-DL.DD5.1.H264-RARBG
Language                                 : English
Default                                  : Yes
Forced                                   : No

Text #1
ID                                       : 3
Format                                   : UTF-8
Codec ID                                 : S_TEXT/UTF8
Codec ID/Info                            : UTF-8 Plain Text
Language                                 : English
Default                                  : Yes
Forced                                   : No

Text #2
ID                                       : 4
Format                                   : UTF-8
Codec ID                                 : S_TEXT/UTF8
Codec ID/Info                            : UTF-8 Plain Text
Title                                    : SDH
Language                                 : English
Default                                  : No
Forced                                   : No



[/mediainfo]
Download
File Container: MKV
Video/Audio Codec: H264 (HIGH) AC3
Video Resolution: 1920x1080
 
 
 
 

Show us some love

Leave a Comment

  • (never displayed)
  •  
        Members don't see captchas. Sign Up / Sign In
  • Notify me via email when someone responds.
  • Subscribe my Feeds
  • Facebook

Latest Episodes

Popular Movies and TV Shows

  • The Flash
  • Kim's Convenience
  • Brooklyn Nine-Nine
  • The Dark Tower
  • Atomic Blonde
  • American Made
  • The Big Bang Theory
  • Lethal Weapon
  • American Horror Story
  • War for the Planet of the Apes
  • Battlefield Earth
  • Kaze ni nureta onna
  • Legends of Tomorrow
  • This Is Us
  • Bull
  • Upstream Color
  • Fading Gigolo
  • Manifesto
  • NCIS: Naval Criminal Investigative Service
  • The Mick
  • NCIS: New Orleans
  • Maudie
  • Biggie: The Life of Notorious B.I.G.
  • Patton Oswalt: Annihilation
  • Star Trek: Discovery

Recent Comments