Sign Up   |   Sign In  

Announcements

Want to support us?
Buy a RapidRAR account from our resellers:
Buy or renew a NitroFlare account via THIS LINK
We'll stop uploading files to Uploaded.net in December 2017.
Until further notice, We will continue uploading files to uploaded.net.

04/20

2017

No

Comments

Shots Fired S01E05 720p WEB-DL DD5 1 H264-RARBG
[RR/NF/UL/UR]
Size: 1.4GB mkv H264 (HIGH) / AC3  HD  1280x720

Shots Fired
Click on the image to see full size
[RR/NF/UL/UR] Shots Fired S01E05 720p WEB-DL DD5 1 H264-RARBG (1.4GB) - Snapshot 1
File Information
[URL=http://imagecurl.com/viewer.php?file=06913631432939297311.png][IMG]http://imagecurl.com/images/06913631432939297311_thumb.png[/IMG][/URL]
[URL=http://imagecurl.com/viewer.php?file=52822879967104640831.png][IMG]http://imagecurl.com/images/52822879967104640831_thumb.png[/IMG][/URL]
[URL=http://imagecurl.com/viewer.php?file=74085853821353230056.png][IMG]http://imagecurl.com/images/74085853821353230056_thumb.png[/IMG][/URL]
[URL=http://imagecurl.com/viewer.php?file=24001754998365767339.png][IMG]http://imagecurl.com/images/24001754998365767339_thumb.png[/IMG][/URL]
[URL=http://imagecurl.com/viewer.php?file=61788491436936939032.png][IMG]http://imagecurl.com/images/61788491436936939032_thumb.png[/IMG][/URL]
[URL=http://imagecurl.com/viewer.php?file=02987195629894333036.png][IMG]http://imagecurl.com/images/02987195629894333036_thumb.png[/IMG][/URL]



[mediainfo]
Video
ID                                       : 1
Format                                   : AVC
Format/Info                              : Advanced Video Codec
Format profile                           : [email protected]
Format settings, CABAC                   : No
Format settings, ReFrames                : 2 frames
Codec ID                                 : V_MPEG4/ISO/AVC
Duration                                 : 43mn 59s
Bit rate                                 : 3 976 Kbps
Width                                    : 1 280 pixels
Height                                   : 720 pixels
Display aspect ratio                     : 16:9
Frame rate mode                          : Constant
Frame rate                               : 23.976 (24000/1001) fps
Color space                              : YUV
Chroma subsampling                       : 4:2:0
Bit depth                                : 8 bits
Scan type                                : Progressive
Bits/(Pixel*Frame)                       : 0.180
Stream size                              : 1.22 GiB (89%)
Title                                    : Shots.Fired.S01E05.720p.WEB-DL.DD5.1.H264-RARBG
Language                                 : English
Default                                  : Yes
Forced                                   : No
Color range                              : Limited
Color primaries                          : BT.709
Transfer characteristics                 : BT.709
Matrix coefficients                      : BT.709

Audio
ID                                       : 2
Format                                   : AC-3
Format/Info                              : Audio Coding 3
Mode extension                           : CM (complete main)
Format settings, Endianness              : Big
Codec ID                                 : A_AC3
Duration                                 : 43mn 59s
Bit rate mode                            : Constant
Bit rate                                 : 384 Kbps
Channel(s)                               : 6 channels
Channel positions                        : Front: L C R, Side: L R, LFE
Sampling rate                            : 48.0 KHz
Frame rate                               : 31.250 fps (1536 spf)
Compression mode                         : Lossy
Stream size                              : 121 MiB (9%)
Title                                    : Shots.Fired.S01E05.720p.WEB-DL.DD5.1.H264-RARBG
Language                                 : English
Default                                  : Yes
Forced                                   : No

Text #1
ID                                       : 3
Format                                   : UTF-8
Codec ID                                 : S_TEXT/UTF8
Codec ID/Info                            : UTF-8 Plain Text
Language                                 : English
Default                                  : Yes
Forced                                   : No

Text #2
ID                                       : 4
Format                                   : UTF-8
Codec ID                                 : S_TEXT/UTF8
Codec ID/Info                            : UTF-8 Plain Text
Title                                    : SDH
Language                                 : English
Default                                  : No
Forced                                   : No



[/mediainfo]
Download
File Container: MKV
Video/Audio Codec: H264 (HIGH) AC3
Video Resolution: 1280x720

Leave a Comment

  • (never displayed)
  •  
        Members don't see captchas. Sign Up / Sign In
  • Notify me via email when someone responds.
  • Subscribe my Feeds
  • Facebook

Latest Episodes

Popular Movies and TV Shows

  • The Big Bang Theory
  • Arrow
  • The Grand Tour
  • Borg McEnroe
  • Day of the Dead: Bloodline
  • Supernatural
  • Young Sheldon
  • S.W.A.T.
  • Super Fly
  • Godzilla: Monster Planet
  • The Pumpkin Eater
  • The Good Place
  • How to Get Away with Murder
  • Beyond
  • A New Leaf
  • Junior Bonner
  • The Killing of a Sacred Deer
  • Vikings
  • The X Files
  • The Blacklist
  • Rise of the Footsoldier 3
  • 12 Strong
  • Asylum
  • The Flash
  • Black Lightning

Recent Comments

  • Guest:

    RE-upload clickupload link please.

  • thaone:

    Thank You

  • thaone:

    Thank You

  • vv/WW:

    "Great.News.S02E12.480p.HDTV.x264-RMTeam" is still in the encoding queue ?!?!?

  • bearman:

    thanks

  • bearman:

    thanks

  • bearman:

    thanks

  • pup:

    can you please reupload this?
    Thanks

  • aXXo: The creators of Holocene are giving it away for free, but they still want donations. https://torre...
  • cookie: @Admin Yes...please post 480x264 RMTeam version as well. It looks like it's stuck in the encoding qu...