Sign Up   |   Sign In  

Announcements

Want to support us?
Buy a RapidRAR account from our resellers:
Buy or renew a NitroFlare account via THIS LINK

04/20

2017

No

Comments

Shots Fired S01E05 WEB-DL x264-RARBG
[RR/NF/UL/OL/OLw/UR/CU]
Size: 268MB mp4 H264 (HIGH) (AVC1) / AAC (LC) (MP4A) 720x400

Shots Fired
Click on the image to see full size
[RR/NF/UL/OL/OLw/UR/CU] Shots Fired S01E05 WEB-DL x264-RARBG (268MB) - Snapshot 1[RR/NF/UL/OL/OLw/UR/CU] Shots Fired S01E05 WEB-DL x264-RARBG (268MB) - Snapshot 2
File Information
[URL]http://www.imdb.com/title/tt5093452/[/URL]
[screenshots]
[URL=http://imagecurl.com/viewer.php?file=21312702283860661817.png][IMG]http://imagecurl.com/images/21312702283860661817_thumb.png[/IMG][/URL]
[URL=http://imagecurl.com/viewer.php?file=71339603821884426641.png][IMG]http://imagecurl.com/images/71339603821884426641_thumb.png[/IMG][/URL]
[URL=http://imagecurl.com/viewer.php?file=37191804663838377705.png][IMG]http://imagecurl.com/images/37191804663838377705_thumb.png[/IMG][/URL]
[URL=http://imagecurl.com/viewer.php?file=21907281118269875078.png][IMG]http://imagecurl.com/images/21907281118269875078_thumb.png[/IMG][/URL]

[/screenshots]


[mediainfo]
Video
ID                                       : 1
Format                                   : AVC
Format/Info                              : Advanced Video Codec
Format profile                           : [email protected]
Format settings, CABAC                   : Yes
Format settings, ReFrames                : 5 frames
Codec ID                                 : avc1
Codec ID/Info                            : Advanced Video Coding
Duration                                 : 43mn 59s
Bit rate                                 : 718 Kbps
Width                                    : 720 pixels
Height                                   : 400 pixels
Display aspect ratio                     : 16:9
Frame rate mode                          : Constant
Frame rate                               : 23.976 (24000/1001) fps
Color space                              : YUV
Chroma subsampling                       : 4:2:0
Bit depth                                : 8 bits
Scan type                                : Progressive
Bits/(Pixel*Frame)                       : 0.104
Stream size                              : 226 MiB (84%)
Title                                    : RARBG.COM - Shots.Fired.S01E05.WEB-DL.x264-RARBG
Writing library                          : x264 core 148 r2597M e86f3a1
 Encoding settings                        : cabac=1 / ref=5 / deblock=1:-1:-1 / analyse=0x3:0x113 / me=umh / subme=9 / psy=1 / psy_rd=1.00:0.15 / mixed_ref=1 / me_range=16 / chroma_me=1 / trellis=2 / 8x8dct=1 / cqm=0 / deadz / fast pskip=1 / chroma_qp_offset=-3 / threads=12 / lookahead_threads=1 / sliced_threads=0 / nr=0 / decimate=1 / interlaced=0 / bluray_compat=0 / c / bframes=3 / b_pyramid=2 / b_adapt=2 / b_bias=0 / direct=3 / weightb=1 / open_gop=0 / weightp=2 / keyint=250 / keyint_min=23 / scenecut=40 / intra_refresh=0 / rc_lookahead=50 / rc=crf / mbtree=1 / crf=19.0 / qcomp=0.60 / qpmin=0 / qpmax=69 / qpstep=4 / ip_ratio=1.40 / aq=1:1.00
Language                                 : English
Encoded date                             : UTC 2017-04-20 09:23:28
Tagged date                              : UTC 2017-04-20 09:23:28

Audio
ID                                       : 2
Format                                   : AAC
Format/Info                              : Advanced Audio Codec
Format profile                           : LC
Codec ID                                 : 40
Duration                                 : 43mn 59s
Bit rate mode                            : Constant
Bit rate                                 : 128 Kbps
Channel(s)                               : 2 channels
Channel positions                        : Front: L R
Sampling rate                            : 48.0 KHz
Frame rate                               : 46.875 fps (1024 spf)
Compression mode                         : Lossy
Stream size                              : 40.3 MiB (15%)
Title                                    : RARBG.COM - Shots.Fired.S01E05.WEB-DL.x264-RARBG
Language                                 : English
Default                                  : Yes
Alternate group                          : 1
Encoded date                             : UTC 2017-04-20 09:23:28
Tagged date                              : UTC 2017-04-20 09:23:28



[/mediainfo]
Download
File Container: MP4
Video/Audio Codec: H264 (HIGH) (AVC1) AAC (LC) (MP4A)
Video Resolution: 720x400
 
 
 
 
 
 
Watch Online [MP4]

Show us some love

Leave a Comment

  • (never displayed)
  •  
        Members don't see captchas. Sign Up / Sign In
  • Notify me via email when someone responds.
  • Subscribe my Feeds
  • Facebook

Latest Episodes

Popular Movies and TV Shows

  • The Son
  • Guardians of the Galaxy Vol. 2
  • Doctor Who
  • Bargain Hunt
  • Boogeyman
  • Ocean's Eleven
  • Training Day
  • Samurai Jack
  • Julie's Greenroom
  • Doomed: The Untold Story of Roger Corman's the Fantastic Four
  • Come Together
  • The Originals
  • Elementary
  • Don't Fuck in the Woods
  • Gotham
  • Baahubali 2: The Conclusion
  • My Favorite Spy
  • Hawaii Five-0
  • The Big Bang Theory
  • Kung-Fu Yoga
  • Designated Survivor
  • Star Wars
  • The Night Watchmen
  • The Blacklist
  • Supernatural

Recent Comments

  • credencedesire-rmz:

    please 480p this and its second season which is also out.

  • Marcus12435:

    Admin please re-upload

  • peyman usa:

    THE ORIGINALS S04E06 1080P WEBRIP HEVC X265-RMTEAM

  • aris73:

    thanks for the movie and the fast clicknupload links!!

  • gyuk:

    ClicknUpload link not working, please rup.
    Thanks!

  • gyuk:

    ClicknUpload link not working, please rup.
    Thanks!

  • gyuk:

    ClicknUpload link not working, please rup.
    Thanks!

  • thaone:

    Thanks

  • thaone:

    Thanks

  • Seabass: One of the dudes in bottom 2 died a few days ago...