Sign Up   |   Sign In  

Announcements

Want to support us?
Buy a RapidRAR account from our resellers:
Buy or renew a NitroFlare account via THIS LINK
We'll stop uploading files to Uploaded.net in December 2017.
Until further notice, We will continue uploading files to uploaded.net.

10/13

2015

2

Comments

Slow Burn 2005 1080p BluRay H264 AAC-RARBG
[RR/UL/180U]
Size: 1.8GB mp4 H264 (HIGH) (AVC1) / AAC (LC) (MP4A)  HD  1920x1080

Slow Burn
Click on the image to see full size
[RR/UL/180U] Slow Burn 2005 1080p BluRay H264 AAC-RARBG (1.8GB) - Snapshot 1
File Information
[URL]http://www.imdb.com/title/tt0376196/[/URL]
[URL=http://imagecurl.com/viewer.php?file=79861520521207775384.png][IMG]http://imagecurl.com/images/79861520521207775384_thumb.png[/IMG][/URL]
[URL=http://imagecurl.com/viewer.php?file=22798239895814370814.png][IMG]http://imagecurl.com/images/22798239895814370814_thumb.png[/IMG][/URL]
[URL=http://imagecurl.com/viewer.php?file=97703544923501152492.png][IMG]http://imagecurl.com/images/97703544923501152492_thumb.png[/IMG][/URL]
[URL=http://imagecurl.com/viewer.php?file=78263081651699100991.png][IMG]http://imagecurl.com/images/78263081651699100991_thumb.png[/IMG][/URL]
[URL=http://imagecurl.com/viewer.php?file=58614723218178272132.png][IMG]http://imagecurl.com/images/58614723218178272132_thumb.png[/IMG][/URL]


[mediainfo]
Video
ID                                       : 1
Format                                   : AVC
Format/Info                              : Advanced Video Codec
Format profile                           : [email protected]
Format settings, CABAC                   : Yes
Format settings, ReFrames                : 4 frames
Codec ID                                 : avc1
Codec ID/Info                            : Advanced Video Coding
Duration                                 : 1h 28mn
Bit rate                                 : 2 500 Kbps
Width                                    : 1 920 pixels
Height                                   : 1 080 pixels
Display aspect ratio                     : 16:9
Frame rate mode                          : Constant
Frame rate                               : 25.000 fps
Color space                              : YUV
Chroma subsampling                       : 4:2:0
Bit depth                                : 8 bits
Scan type                                : Progressive
Bits/(Pixel*Frame)                       : 0.048
Stream size                              : 1.55 GiB (92%)
Writing library                          : x264 core 148 r2597M e86f3a1
 Encoding settings                        : cabac=1 / ref=4 / deblock=1:-1:-1 / analyse=0x3:0x113 / me=umh / subme=9 / psy=1 / psy_rd=1.00:0.15 / mixed_ref=1 / me_range=24 / chroma_me=1 / trellis=2 / 8x8dct=1 / cqm=0 / deadz / fast pskip=1 / chroma_qp_offset=-3 / threads=32 / lookahead_threads=4 / sliced_threads=0 / nr=0 / decimate=1 / interlaced=0 / bluray_compat=0 / c / bframes=3 / b_pyramid=2 / b_adapt=1 / b_bias=0 / direct=1 / weightb=1 / open_gop=0 / weightp=2 / keyint=250 / keyint_min=25 / scenecut=40 / intra_refresh=0 / rc_lookahead=50 / rc=2pass / mbtree=1 / bitrate=2500 / ratetol=1.0 / qcomp=0.60 / qpmin=0 / qpmax=69 / qpstep=4 / cplxblur=20.0 / qblur=0.5 / vbv_maxrate=31250 / vbv_bufsize=31250 / nal_hrd=none / filler=0 / ip_ratio=1.40 / aq=3:1.00
Encoded date                             : UTC 1904-01-01 00:00:00
Tagged date                              : UTC 1904-01-01 00:00:00

Audio
ID                                       : 2
Format                                   : AAC
Format/Info                              : Advanced Audio Codec
Format profile                           : LC
Codec ID                                 : 40
Duration                                 : 1h 28mn
Bit rate mode                            : Constant
Bit rate                                 : 224 Kbps
Channel(s)                               : 2 channels
Channel(s)_Original                      : 6 channels
Channel positions                        : Front: L C R, Side: L R, LFE
Sampling rate                            : 48.0 KHz
Compression mode                         : Lossy
Stream size                              : 143 MiB (8%)
Language                                 : English
Encoded date                             : UTC 1904-01-01 00:00:00
Tagged date                              : UTC 1904-01-01 00:00:00



[/mediainfo]
Download
File Container: MP4
Video/Audio Codec: H264 (HIGH) (AVC1) AAC (LC) (MP4A)
Video Resolution: 1920x1080
RAR Recovery Record: 5% (How to repair corrupted archive RAR file?)
Link(s) are dead.
Link(s) are dead.
Link(s) are dead.

2 Responses to "[RR/UL/180U] Slow Burn 2005 1080p BluRay H264 AAC-RARBG (1.8GB)"
10/20/17
18:03:31
pouresinopi

dead links please reupload

10/20/17
18:04:00
pouresinopi

dead links please reupload

Leave a Comment

  • (never displayed)
  •  
        Members don't see captchas. Sign Up / Sign In
  • Notify me via email when someone responds.
  • Subscribe my Feeds
  • Facebook

Latest Episodes

Popular Movies and TV Shows

  • Blockers
  • Supergirl
  • The Death of Superman
  • Elementary
  • Gou hun jiang tou
  • Into the Badlands
  • Rampage
  • Life of the Party
  • Ready Player One
  • Dietland
  • Westworld
  • Big City Greens
  • Dark
  • Finding Your Feet
  • Showdown
  • Incredibles 2
  • Spider-Man
  • Succession
  • Shades of Blue
  • Educating Rita
  • Instinct
  • Elevator Girl
  • Ghosted
  • Girl Followed
  • Arrow

Recent Comments

  • TaterTots:

    ClicknUpload?

  • uncabrian: They put so much Malware on Openload that the page won't even open. Blocked for security and Malware...
  • uncabrian:

    So, No more Openload or what ? Is this a temporary problem or is Openload a dead site now ?

  • bearman:

    Thanks

Archives