Sign Up   |   Sign In  
Young SheldonElsbethLaw & Order Toronto: Criminal IntentThe ReaderBarbarianScreamGhostsAmerican Horror StoryLaw & OrderYou Were Never Really HereLie with MeGreen LanternStar Trek: DiscoveryThe Three Musketeers - Part II: MiladyFamily GuyGhostbusters: Frozen EmpireChuckyGodzilla x Kong: The New EmpireWalkerAnimal ControlThe Bold and the BeautifulThe InseparablesJokerLa margeFBI

Announcements

02/27

2024

No

Comments

SpongeBob SquarePants S14E11 Necro-Nom-Nom-Nom-I-Con 1080p AMZN WEB-DL DDP2 0 H 264-NTb
[RR/NF/CU]
Size: 485MB mkv H264 (HIGH) / EAC3  HD  1920x1080

SpongeBob SquarePants
File Information
[img]http://lookpic.com/cdn/i2/t/0227202407150556-1.jpg[/img]
[img]http://lookpic.com/cdn/i2/t/0227202407150556-2.jpg[/img]
[img]http://lookpic.com/cdn/i2/t/0227202407150556-3.jpg[/img]

General
Unique ID                                : 213154587491238553627269754886880195416 (0xA05C148D7212A3287148554638777358)
Complete name                            : SpongeBob.SquarePants.S14E11.Necro-Nom-Nom-Nom-I-Con.1080p.AMZN.WEB-DL.DDP2.0.H.264-NTb.mkv
Format                                   : Matroska
Format version                           : Version 4
File size                                : 485 MiB
Duration                                 : 10 min 59 s
Overall bit rate                         : 6 177 kb/s
Frame rate                               : 23.976 FPS
Encoded date                             : 2024-02-27 14:27:38 UTC
Writing application                      : mkvmerge v82.0 ('I'm The President') 64-bit
Writing library                          : libebml v1.4.5 + libmatroska v1.7.1

Video
ID                                       : 1
Format                                   : AVC
Format/Info                              : Advanced Video Codec
Format profile                           : High@L4
Format settings                          : CABAC / 4 Ref Frames
Format settings, CABAC                   : Yes
Format settings, Reference frames        : 4 frames
Codec ID                                 : V_MPEG4/ISO/AVC
Duration                                 : 10 min 58 s
Bit rate mode                            : Constant
Bit rate                                 : 5 951 kb/s
Nominal bit rate                         : 10 000 kb/s
Width                                    : 1 920 pixels
Height                                   : 1 080 pixels
Display aspect ratio                     : 16:9
Frame rate mode                          : Constant
Frame rate                               : 23.976 (24000/1001) FPS
Color space                              : YUV
Chroma subsampling                       : 4:2:0
Bit depth                                : 8 bits
Scan type                                : Progressive
Bits/(Pixel*Frame)                       : 0.120
Stream size                              : 468 MiB (96%)
Writing library                          : x264 core 164 r3065 ae03d92
 Encoding settings                        : cabac=1 / ref=4 / deblock=1:0:0 / analyse=0x3:0x113 / me=hex / subme=7 / psy=1 / psy_rd=1.00:0.00 / mixed_ref=1 / me_range=16 / chroma_me=1 / trellis=1 / 8x8dct=1 / cqm=0 / deadz / fast pskip=1 / chroma_qp_offset=-5 / threads=12 / lookahead_threads=2 / sliced_threads=0 / nr=0 / decimate=1 / interlaced=0 / bluray_compat=0 / stitchable=1 / c / bframes=2 / b_pyramid=2 / b_adapt=1 / b_bias=0 / direct=1 / weightb=1 / open_gop=0 / weightp=1 / keyint=47 / keyint_min=4 / scenecut=40 / intra_refresh=0 / rc_lookahead=40 / rc=crf / mbtree=1 / crf=19.0 / qcomp=0.60 / qpmin=0 / qpmax=69 / qpstep=4 / vbv_maxrate=20000 / vbv_bufsize=25000 / crf_max=0.0 / nal_hrd=none / filler=0 / ip_ratio=1.40 / aq=1:1.00
Default                                  : Yes
Forced                                   : No
Color range                              : Limited
Color primaries                          : BT.709
Transfer characteristics                 : BT.709
Matrix coefficients                      : BT.709

Audio
ID                                       : 2
Format                                   : E-AC-3
Format/Info                              : Enhanced AC-3
Commercial name                          : Dolby Digital Plus
Codec ID                                 : A_EAC3
Duration                                 : 10 min 59 s
Bit rate mode                            : Constant
Bit rate                                 : 224 kb/s
Channel(s)                               : 2 channels
Channel layout                           : L R
Sampling rate                            : 48.0 kHz
Frame rate                               : 31.250 FPS (1536 SPF)
Compression mode                         : Lossy
Stream size                              : 17.6 MiB (4%)
Language                                 : English
Service kind                             : Complete Main
Default                                  : Yes
Forced                                   : No

Text #1
ID                                       : 3
Format                                   : UTF-8
Codec ID                                 : S_TEXT/UTF8
Codec ID/Info                            : UTF-8 Plain Text
Duration                                 : 10 min 43 s
Bit rate                                 : 53 b/s
Frame rate                               : 0.267 FPS
Count of elements                        : 172
Stream size                              : 4.18 KiB (0%)
Language                                 : English
Default                                  : No
Forced                                   : No

Text #2
ID                                       : 4
Format                                   : UTF-8
Codec ID                                 : S_TEXT/UTF8
Codec ID/Info                            : UTF-8 Plain Text
Duration                                 : 10 min 55 s
Bit rate                                 : 58 b/s
Frame rate                               : 0.319 FPS
Count of elements                        : 209
Stream size                              : 4.66 KiB (0%)
Title                                    : SDH
Language                                 : English
Default                                  : No
Forced                                   : No



Download
File Container: MKV
Video/Audio Codec: H264 (HIGH) EAC3
Video Resolution: 1920x1080
Please Login to post a comment.
If you don't have any account, please Register.
  • Subscribe my Feeds
  • Facebook
Encoding Queue:  x264  x265

Latest Episodes

Popular Movies and TV Shows

  • Young Sheldon
  • Elsbeth
  • Law & Order Toronto: Criminal Intent
  • The Reader
  • Barbarian
  • Scream
  • Ghosts
  • American Horror Story
  • Law & Order
  • You Were Never Really Here
  • Lie with Me
  • Green Lantern
  • Star Trek: Discovery
  • The Three Musketeers - Part II: Milady
  • Family Guy
  • Ghostbusters: Frozen Empire
  • Chucky
  • Godzilla x Kong: The New Empire
  • Walker
  • Animal Control
  • The Bold and the Beautiful
  • The Inseparables
  • Joker
  • La marge
  • FBI

Recent Comments

  • Draveren: hi. can we solve this "server under maintenance" stuff, already? if back in the day i'd ke...
  • Majnon: The links are dead. Please re-upload
  • timt:

    Anyone have the movie "Shoot" (1976) to post?

  • Nightshade: Hey, it appears at least the RMTeam separate episodes and ION's packs for the first two seasons of t...
  • Bigfishguy:

    There's no free option to download this video. Can someone please upload it to clicknupload?

  • timt:

    Junk

  • timt:

    CAM Audio

  • timt:

    Hard Coded SUMS! Russian, I Think.

  • ubirattan:

    Mandem um Fikper, por favor.

  • kellym2: No answer yet for my query - why all the episodes "server under maintenance" on some episo...
  • Majnon:

    Rapidrar links are dead :(

  • Rake:

    Loads of "Server is under maintenance" with RR theese days...

  • kellym2: Why am I getting "Server is in maintenance mode" on some episodes of a series and not on o...
  • Bud:

    Are you ever going to put up Thursday's episode with Liev Schreiber?

Archives