Sign Up   |   Sign In  
The RookieUnder the BridgeWWE NXTThe Fall GuyReptiliansHeadshotDark MatterWill TrentFBIMoonedBoy Kills WorldGekijouban soushuuhen Ôbârôdo: Shikkoku no eiyuuThe Cleaning LadyThe Good DoctorFBI: Most WantedThe Manchurian CandidateVisionsExpend4blesFBI: InternationalWWE RawThe VeilSeize Them!The Name of the Rose8 Found DeadThe Simpsons

Announcements

04/11

2024

1

Comments

Star Trek Discovery S05E03 Jinaal 1080p Hybrid PMTP WEB-DL DDP5 1 DoVi HDR HEVC-NTb
[RR/NF]
Size: 4GB 2 CDs mkv HEVC (MAIN 10) / EAC3  HD  1920x1080

Star Trek: Discovery
File Information
[img]http://lookpic.com/cdn/i2/t/0411202419274797-1.jpg[/img]
[img]http://lookpic.com/cdn/i2/t/0411202419274797-2.jpg[/img]
[img]http://lookpic.com/cdn/i2/t/0411202419274797-3.jpg[/img]

General
Unique ID                                : 291716312212798971120381984134243565174 (0xDB7684A1EB35522EFC283A17B52C3E76)
Complete name                            : Star Trek Discovery S05E03 Jinaal 1080p Hybrid PMTP WEB-DL DDP5 1 DoVi HDR HEVC-NTb.mkv
Format                                   : Matroska
Format version                           : Version 4
File size                                : 1.99 GiB
Duration                                 : 55 min 34 s
Overall bit rate                         : 5 137 kb/s
Frame rate                               : 23.976 FPS
Writing application                      : mkvmerge v81.0 ('Milliontown') 64-bit
Writing library                          : libebml v1.4.4 + libmatroska v1.7.1

Video
ID                                       : 1
Format                                   : HEVC
Format/Info                              : High Efficiency Video Coding
Format profile                           : Main 10@L4@Main
HDR format                               : Dolby Vision, Version 1.0, dvhe.08.03, BL+RPU, HDR10 compatible / SMPTE ST 2094 App 4, Version 1, HDR10+ Profile B compatible
Codec ID                                 : V_MPEGH/ISO/HEVC
Duration                                 : 55 min 34 s
Bit rate                                 : 4 495 kb/s
Width                                    : 1 920 pixels
Height                                   : 1 080 pixels
Display aspect ratio                     : 16:9
Frame rate mode                          : Constant
Frame rate                               : 23.976 (24000/1001) FPS
Color space                              : YUV
Chroma subsampling                       : 4:2:0 (Type 2)
Bit depth                                : 10 bits
Bits/(Pixel*Frame)                       : 0.090
Stream size                              : 1.74 GiB (87%)
Default                                  : Yes
Forced                                   : No
Color range                              : Limited
Color primaries                          : BT.2020
Transfer characteristics                 : PQ
Matrix coefficients                      : BT.2020 non-constant
Mastering display color primaries        : Display P3
Mastering display luminance              : min: 0.0001 cd/m2, max: 1000 cd/m2
Maximum Content Light Level              : 703 cd/m2
Maximum Frame-Average Light Level        : 211 cd/m2

Audio
ID                                       : 2
Format                                   : E-AC-3
Format/Info                              : Enhanced AC-3
Commercial name                          : Dolby Digital Plus
Codec ID                                 : A_EAC3
Duration                                 : 55 min 34 s
Bit rate mode                            : Constant
Bit rate                                 : 640 kb/s
Channel(s)                               : 6 channels
Channel layout                           : L R C LFE Ls Rs
Sampling rate                            : 48.0 kHz
Frame rate                               : 31.250 FPS (1536 SPF)
Compression mode                         : Lossy
Stream size                              : 254 MiB (12%)
Language                                 : English
Service kind                             : Complete Main
Default                                  : Yes
Forced                                   : No

Text #1
ID                                       : 3
Format                                   : UTF-8
Codec ID                                 : S_TEXT/UTF8
Codec ID/Info                            : UTF-8 Plain Text
Duration                                 : 54 min 10 s
Bit rate                                 : 77 b/s
Frame rate                               : 0.294 FPS
Count of elements                        : 957
Stream size                              : 30.8 KiB (0%)
Language                                 : English (US)
Default                                  : No
Forced                                   : No

Text #2
ID                                       : 4
Format                                   : UTF-8
Codec ID                                 : S_TEXT/UTF8
Codec ID/Info                            : UTF-8 Plain Text
Duration                                 : 54 min 35 s
Bit rate                                 : 81 b/s
Frame rate                               : 0.310 FPS
Count of elements                        : 1016
Stream size                              : 32.7 KiB (0%)
Title                                    : SDH
Language                                 : English (US)
Default                                  : No
Forced                                   : No

Menu
00:00:00.000                             : Chapter 1
00:00:27.000                             : Recap
00:01:52.000                             : Chapter 2
00:10:49.000                             : Intro
00:21:23.000                             : Chapter 3
00:33:17.000                             : Chapter 4
00:42:38.000                             : Chapter 5
00:54:27.000                             : Credits



Download
File Container: MKV
Video/Audio Codec: HEVC (MAIN 10) EAC3
Video Resolution: 1920x1080

1 Response to "[RR/NF] Star Trek Discovery S05E03 Jinaal 1080p Hybrid PMTP WEB-DL DDP5 1 DoVi HDR HEVC-NTb (4GB)"
04/11/24
21:19:08
ReadyPlayerOne

Thank You

Please Login to post a comment.
If you don't have any account, please Register.
  • Subscribe my Feeds
  • Facebook
Encoding Queue:  x264  x265

Latest Episodes

Popular Movies and TV Shows

  • The Rookie
  • Under the Bridge
  • WWE NXT
  • The Fall Guy
  • Reptilians
  • Headshot
  • Dark Matter
  • Will Trent
  • FBI
  • Mooned
  • Boy Kills World
  • Gekijouban soushuuhen Ôbârôdo: Shikkoku no eiyuu
  • The Cleaning Lady
  • The Good Doctor
  • FBI: Most Wanted
  • The Manchurian Candidate
  • Visions
  • Expend4bles
  • FBI: International
  • WWE Raw
  • The Veil
  • Seize Them!
  • The Name of the Rose
  • 8 Found Dead
  • The Simpsons

Recent Comments

  • OldMovies:

    Has Czech subtitles but not English. Need forced English for the foreign language parts.

  • PROFessorMorrynarty: Would it be possible to upload 'Lego masters Australia' Series 6 Episode 6 Please? It's the only one...
  • mentalityx:

    Thx mate.

  • Bud: Is the search engine down for everyone, or just me? It just says 'You're forbidden!' whenever I lo...
  • 23d1:

    not episode 4 it is episode 3

  • 23d1:

    not episode 4 it is episode 3

  • 23d1:

    not episode 4 it is episode 3

  • 23d1:

    not episode 4 it is episode 3

  • aaroz88:

    Trimas!!

  • mptoo: I don't often ask this, infact this would be the first time, but I don't suppose there is any chance...
  • Cinque_Persson:

    btw:
    quote /quote
    is broken

  • gabrielsyme:

    Sorry but where is the clicknupload link?

  • mike1204:

    Is this episode doomed??? The RMX avi version is only 12 minutes long!!!

Archives