Sign Up   |   Sign In  
The ChiSistasThe Big CigarI Saw the TV GlowThe EgyptianNotas sobre un veranoThe Bold and the BeautifulYoung SheldonModern FamilyGoodbye Uncle TomLSD 2: Love, Sex Aur Dhokha 2The PrestigeThe BoysWWE NXTWalkerMower MinionsBratsAssimilateEvilBridgertonCriminal MindsIn the Line of FireThe Artifice GirlLamp LifeThe Daily Show

Announcements

05/16

2024

1

Comments

Star Trek Discovery S05E08 Labyrinths 1080p AMZN WEB-DL DDP5 1 H 264-FLUX
[RR/NF]
Size: 2.8GB mkv H264 (HIGH) / EAC3  HD  1920x800

Star Trek: Discovery
File Information
[img]http://lookpic.com/cdn/i2/t/0516202408341233-1.jpg[/img]
[img]http://lookpic.com/cdn/i2/t/0516202408341233-2.jpg[/img]
[img]http://lookpic.com/cdn/i2/t/0516202408341233-3.jpg[/img]

General
Unique ID                                : 106827793386984573611140853858208257654 (0x505E48DCB44E2DBA371D6A492F8B1676)
Complete name                            : Star Trek Discovery S05E08 Labyrinths 1080p AMZN WEB-DL DDP5 1 H 264-FLUX.mkv
Format                                   : Matroska
Format version                           : Version 4
File size                                : 2.75 GiB
Duration                                 : 57 min 40 s
Overall bit rate                         : 6 828 kb/s
Frame rate                               : 23.976 FPS
Writing application                      : mkvmerge v79.0 ('Funeral Pyres') 64-bit
Writing library                          : libebml v1.4.4 + libmatroska v1.7.1

Video
ID                                       : 1
Format                                   : AVC
Format/Info                              : Advanced Video Codec
Format profile                           : High@L4
Format settings                          : CABAC / 4 Ref Frames
Format settings, CABAC                   : Yes
Format settings, Reference frames        : 4 frames
Codec ID                                 : V_MPEG4/ISO/AVC
Duration                                 : 57 min 40 s
Bit rate mode                            : Constant
Bit rate                                 : 6 186 kb/s
Nominal bit rate                         : 10 000 kb/s
Width                                    : 1 920 pixels
Height                                   : 800 pixels
Display aspect ratio                     : 2.40:1
Frame rate mode                          : Constant
Frame rate                               : 23.976 (24000/1001) FPS
Color space                              : YUV
Chroma subsampling                       : 4:2:0
Bit depth                                : 8 bits
Scan type                                : Progressive
Bits/(Pixel*Frame)                       : 0.168
Stream size                              : 2.49 GiB (91%)
Language                                 : English (US)
Default                                  : Yes
Forced                                   : No
Color range                              : Limited
Color primaries                          : BT.709
Transfer characteristics                 : BT.709
Matrix coefficients                      : BT.709

Audio
ID                                       : 2
Format                                   : E-AC-3
Format/Info                              : Enhanced AC-3
Commercial name                          : Dolby Digital Plus
Codec ID                                 : A_EAC3
Duration                                 : 57 min 40 s
Bit rate mode                            : Constant
Bit rate                                 : 640 kb/s
Channel(s)                               : 6 channels
Channel layout                           : L R C LFE Ls Rs
Sampling rate                            : 48.0 kHz
Frame rate                               : 31.250 FPS (1536 SPF)
Compression mode                         : Lossy
Stream size                              : 264 MiB (9%)
Language                                 : English (US)
Service kind                             : Complete Main
Default                                  : Yes
Forced                                   : No

Text #1
ID                                       : 3
Format                                   : UTF-8
Codec ID                                 : S_TEXT/UTF8
Codec ID/Info                            : UTF-8 Plain Text
Duration                                 : 56 min 16 s
Bit rate                                 : 71 b/s
Frame rate                               : 0.286 FPS
Count of elements                        : 964
Stream size                              : 29.4 KiB (0%)
Language                                 : English (US)
Default                                  : No
Forced                                   : No

Text #2
ID                                       : 4
Format                                   : UTF-8
Codec ID                                 : S_TEXT/UTF8
Codec ID/Info                            : UTF-8 Plain Text
Duration                                 : 56 min 40 s
Bit rate                                 : 74 b/s
Frame rate                               : 0.305 FPS
Count of elements                        : 1037
Stream size                              : 31.0 KiB (0%)
Title                                    : SDH
Language                                 : English (US)
Default                                  : No
Forced                                   : No

Menu
00:00:00.000                             : en:Scene 1
00:00:26.000                             : en:Recap
00:02:07.000                             : en:Scene 2
00:09:44.000                             : en:Intro
00:11:13.000                             : en:Scene 3
00:56:32.000                             : en:End Credits



Download
File Container: MKV
Video/Audio Codec: H264 (HIGH) EAC3
Video Resolution: 1920x800

1 Response to "[RR/NF] Star Trek Discovery S05E08 Labyrinths 1080p AMZN WEB-DL DDP5 1 H 264-FLUX (2.8GB)"
05/16/24
11:45:12
ReadyPlayerOne

Thank You

Please Login to post a comment.
If you don't have any account, please Register.
  • Subscribe my Feeds
  • Facebook
Encoding Queue:  x264  x265

Latest Episodes

Popular Movies and TV Shows

  • The Chi
  • Sistas
  • The Big Cigar
  • I Saw the TV Glow
  • The Egyptian
  • Notas sobre un verano
  • The Bold and the Beautiful
  • Young Sheldon
  • Modern Family
  • Goodbye Uncle Tom
  • LSD 2: Love, Sex Aur Dhokha 2
  • The Prestige
  • The Boys
  • WWE NXT
  • Walker
  • Mower Minions
  • Brats
  • Assimilate
  • Evil
  • Bridgerton
  • Criminal Minds
  • In the Line of Fire
  • The Artifice Girl
  • Lamp Life
  • The Daily Show

Recent Comments

Archives