Sign Up   |   Sign In  
House of the DragonNCISPlatonicCaracasCry-BabyEnter Three DragonsReturn to Never LandJack Whitehall: Settle DownTwo Way StretchPhysicalManhuntPalm RoyaleMayor of KingstownWalkerMy Adventures with SupermanCats in the MuseumCalamity JaneKiller Body CountHotel CocaineInterview with the VampireThe Loud HouseOctopussyDaaaaaali!Kung Fu HustleThe Daily Show

Announcements

05/16

2024

1

Comments

Star Trek Discovery S05E08 Labyrinths 1080p Hybrid PMTP WEB-DL DDP5 1 DoVi HDR HEVC-NTb
[RR/NF]
Size: 4.2GB 2 CDs mkv HEVC (MAIN 10) / EAC3  HD  1920x1080

Star Trek: Discovery
File Information
[img]http://lookpic.com/cdn/i2/t/0516202409215324-1.jpg[/img]
[img]http://lookpic.com/cdn/i2/t/0516202409215324-2.jpg[/img]
[img]http://lookpic.com/cdn/i2/t/0516202409215324-3.jpg[/img]

General
Unique ID                                : 257027833640661621616261542083526382254 (0xC15DC298344C2C68769482986E27D2AE)
Complete name                            : 55c4ed0e26ec41ea8e6c1670f7fd1db5.mkv
Format                                   : Matroska
Format version                           : Version 4
File size                                : 2.08 GiB
Duration                                 : 57 min 40 s
Overall bit rate                         : 5 170 kb/s
Frame rate                               : 23.976 FPS
Writing application                      : mkvmerge v81.0 ('Milliontown') 64-bit
Writing library                          : libebml v1.4.4 + libmatroska v1.7.1

Video
ID                                       : 1
Format                                   : HEVC
Format/Info                              : High Efficiency Video Coding
Format profile                           : Main 10@L4@Main
HDR format                               : Dolby Vision, Version 1.0, dvhe.08.03, BL+RPU, HDR10 compatible / SMPTE ST 2094 App 4, Version 1, HDR10+ Profile B compatible
Codec ID                                 : V_MPEGH/ISO/HEVC
Duration                                 : 57 min 40 s
Bit rate                                 : 4 527 kb/s
Width                                    : 1 920 pixels
Height                                   : 1 080 pixels
Display aspect ratio                     : 16:9
Frame rate mode                          : Constant
Frame rate                               : 23.976 (24000/1001) FPS
Color space                              : YUV
Chroma subsampling                       : 4:2:0 (Type 2)
Bit depth                                : 10 bits
Bits/(Pixel*Frame)                       : 0.091
Stream size                              : 1.82 GiB (88%)
Default                                  : Yes
Forced                                   : No
Color range                              : Limited
Color primaries                          : BT.2020
Transfer characteristics                 : PQ
Matrix coefficients                      : BT.2020 non-constant
Mastering display color primaries        : Display P3
Mastering display luminance              : min: 0.0001 cd/m2, max: 1000 cd/m2
Maximum Content Light Level              : 703 cd/m2
Maximum Frame-Average Light Level        : 131 cd/m2

Audio
ID                                       : 2
Format                                   : E-AC-3
Format/Info                              : Enhanced AC-3
Commercial name                          : Dolby Digital Plus
Codec ID                                 : A_EAC3
Duration                                 : 57 min 40 s
Bit rate mode                            : Constant
Bit rate                                 : 640 kb/s
Channel(s)                               : 6 channels
Channel layout                           : L R C LFE Ls Rs
Sampling rate                            : 48.0 kHz
Frame rate                               : 31.250 FPS (1536 SPF)
Compression mode                         : Lossy
Stream size                              : 264 MiB (12%)
Language                                 : English
Service kind                             : Complete Main
Default                                  : Yes
Forced                                   : No

Text #1
ID                                       : 3
Format                                   : UTF-8
Codec ID                                 : S_TEXT/UTF8
Codec ID/Info                            : UTF-8 Plain Text
Duration                                 : 56 min 16 s
Bit rate                                 : 71 b/s
Frame rate                               : 0.285 FPS
Count of elements                        : 963
Stream size                              : 29.3 KiB (0%)
Language                                 : English (US)
Default                                  : No
Forced                                   : No

Text #2
ID                                       : 4
Format                                   : UTF-8
Codec ID                                 : S_TEXT/UTF8
Codec ID/Info                            : UTF-8 Plain Text
Duration                                 : 56 min 40 s
Bit rate                                 : 74 b/s
Frame rate                               : 0.305 FPS
Count of elements                        : 1037
Stream size                              : 31.1 KiB (0%)
Title                                    : SDH
Language                                 : English (US)
Default                                  : No
Forced                                   : No

Menu
00:00:00.000                             : Chapter 1
00:00:26.000                             : Recap
00:02:04.000                             : Chapter 2
00:09:44.000                             : Intro
00:19:33.000                             : Chapter 3
00:33:29.000                             : Chapter 4
00:46:42.000                             : Chapter 5
00:56:33.000                             : Credits



Download
File Container: MKV
Video/Audio Codec: HEVC (MAIN 10) EAC3
Video Resolution: 1920x1080

1 Response to "[RR/NF] Star Trek Discovery S05E08 Labyrinths 1080p Hybrid PMTP WEB-DL DDP5 1 DoVi HDR HEVC-NTb (4.2GB)"
05/16/24
11:17:18
ReadyPlayerOne

Thank You

Please Login to post a comment.
If you don't have any account, please Register.
  • Subscribe my Feeds
  • Facebook
Encoding Queue:  x264  x265

Latest Episodes

Popular Movies and TV Shows

  • House of the Dragon
  • NCIS
  • Platonic
  • Caracas
  • Cry-Baby
  • Enter Three Dragons
  • Return to Never Land
  • Jack Whitehall: Settle Down
  • Two Way Stretch
  • Physical
  • Manhunt
  • Palm Royale
  • Mayor of Kingstown
  • Walker
  • My Adventures with Superman
  • Cats in the Museum
  • Calamity Jane
  • Killer Body Count
  • Hotel Cocaine
  • Interview with the Vampire
  • The Loud House
  • Octopussy
  • Daaaaaali!
  • Kung Fu Hustle
  • The Daily Show

Recent Comments

Archives