Sign Up   |   Sign In  
The ChiShoresySistasI Saw the TV GlowThe EgyptianBekasThe Bold and the BeautifulThe Big CigarYoung SheldonNotas sobre un veranoGoodbye Uncle TomThe PrestigeThe BoysWWE NXTWalkerMower MinionsBratsAssimilateEvilBridgertonCriminal MindsIn the Line of FireThe Artifice GirlLamp LifeThe Daily Show

Announcements

05/16

2024

1

Comments

Star Trek Discovery S05E08 Labyrinths 720p AMZN WEB-DL DDP5 1 H 264-NTb
[RR/NF]
Size: 1.3GB mkv H264 (HIGH) / EAC3  HD  1248x520

Star Trek: Discovery
File Information
[img]http://lookpic.com/cdn/i2/t/0516202409301978-1.jpg[/img]
[img]http://lookpic.com/cdn/i2/t/0516202409301978-2.jpg[/img]
[img]http://lookpic.com/cdn/i2/t/0516202409301978-3.jpg[/img]

General
Unique ID                                : 9363457565822432188193623235229260267 (0x70B5619C82F47E987CDBC7E558A19EB)
Complete name                            : Star Trek Discovery S05E08 Labyrinths 720p AMZN WEB-DL DDP5 1 H 264-NTb.mkv
Format                                   : Matroska
Format version                           : Version 4
File size                                : 1.27 GiB
Duration                                 : 57 min 40 s
Overall bit rate                         : 3 151 kb/s
Frame rate                               : 23.976 FPS
Writing application                      : mkvmerge v81.0 ('Milliontown') 64-bit
Writing library                          : libebml v1.4.4 + libmatroska v1.7.1

Video
ID                                       : 1
Format                                   : AVC
Format/Info                              : Advanced Video Codec
Format profile                           : High@L3.1
Format settings                          : CABAC / 4 Ref Frames
Format settings, CABAC                   : Yes
Format settings, Reference frames        : 4 frames
Codec ID                                 : V_MPEG4/ISO/AVC
Duration                                 : 57 min 40 s
Bit rate mode                            : Constant
Bit rate                                 : 2 509 kb/s
Nominal bit rate                         : 4 000 kb/s
Width                                    : 1 248 pixels
Height                                   : 520 pixels
Display aspect ratio                     : 2.40:1
Frame rate mode                          : Constant
Frame rate                               : 23.976 (24000/1001) FPS
Color space                              : YUV
Chroma subsampling                       : 4:2:0
Bit depth                                : 8 bits
Scan type                                : Progressive
Bits/(Pixel*Frame)                       : 0.161
Stream size                              : 1.01 GiB (80%)
Default                                  : Yes
Forced                                   : No
Color range                              : Limited
Color primaries                          : BT.709
Transfer characteristics                 : BT.709
Matrix coefficients                      : BT.709

Audio
ID                                       : 2
Format                                   : E-AC-3
Format/Info                              : Enhanced AC-3
Commercial name                          : Dolby Digital Plus
Codec ID                                 : A_EAC3
Duration                                 : 57 min 40 s
Bit rate mode                            : Constant
Bit rate                                 : 640 kb/s
Channel(s)                               : 6 channels
Channel layout                           : L R C LFE Ls Rs
Sampling rate                            : 48.0 kHz
Frame rate                               : 31.250 FPS (1536 SPF)
Compression mode                         : Lossy
Stream size                              : 264 MiB (20%)
Language                                 : English (US)
Service kind                             : Complete Main
Default                                  : Yes
Forced                                   : No

Text #1
ID                                       : 3
Format                                   : UTF-8
Codec ID                                 : S_TEXT/UTF8
Codec ID/Info                            : UTF-8 Plain Text
Duration                                 : 56 min 16 s
Bit rate                                 : 71 b/s
Frame rate                               : 0.285 FPS
Count of elements                        : 963
Stream size                              : 29.3 KiB (0%)
Language                                 : English (US)
Default                                  : No
Forced                                   : No

Text #2
ID                                       : 4
Format                                   : UTF-8
Codec ID                                 : S_TEXT/UTF8
Codec ID/Info                            : UTF-8 Plain Text
Duration                                 : 56 min 40 s
Bit rate                                 : 74 b/s
Frame rate                               : 0.305 FPS
Count of elements                        : 1037
Stream size                              : 31.0 KiB (0%)
Title                                    : SDH
Language                                 : English (US)
Default                                  : No
Forced                                   : No



Download
File Container: MKV
Video/Audio Codec: H264 (HIGH) EAC3
Video Resolution: 1248x520

1 Response to "[RR/NF] Star Trek Discovery S05E08 Labyrinths 720p AMZN WEB-DL DDP5 1 H 264-NTb (1.3GB)"
05/16/24
11:19:01
ReadyPlayerOne

Thank You

Please Login to post a comment.
If you don't have any account, please Register.
  • Subscribe my Feeds
  • Facebook
Encoding Queue:  x264  x265

Latest Episodes

Popular Movies and TV Shows

  • The Chi
  • Shoresy
  • Sistas
  • I Saw the TV Glow
  • The Egyptian
  • Bekas
  • The Bold and the Beautiful
  • The Big Cigar
  • Young Sheldon
  • Notas sobre un verano
  • Goodbye Uncle Tom
  • The Prestige
  • The Boys
  • WWE NXT
  • Walker
  • Mower Minions
  • Brats
  • Assimilate
  • Evil
  • Bridgerton
  • Criminal Minds
  • In the Line of Fire
  • The Artifice Girl
  • Lamp Life
  • The Daily Show

Recent Comments

Archives