Sign Up   |   Sign In  
Mayor of KingstownMy Adventures with SupermanHoly Marvels with Dennis QuaidChristmas Is CanceledThe Body StealersSatan's ChildrenInterview with the VampireHotel CocaineDaaaaaali!WalkerOctopussyCats in the MuseumLadies in BlackBilly the KidThe 11th HourKung Fu HustleLicence to KillLook to the LightWWE NXTThe Loud HouseThe Bold and the BeautifulThere's Something About MaryVice News Presents: Mass Shooting AmericaInside Out 2The Daily Show

Announcements

05/23

2024

1

Comments

Star Trek Discovery S05E09 Lagrange Point 1080p AMZN WEB-DL DDP5 1 H 264-NTb
[RR/NF]
Size: 2.4GB mkv H264 (HIGH) / EAC3  HD  1920x800

Star Trek: Discovery
File Information
[img]http://lookpic.com/cdn/i2/t/0523202414595112-1.jpg[/img]
[img]http://lookpic.com/cdn/i2/t/0523202414595112-2.jpg[/img]
[img]http://lookpic.com/cdn/i2/t/0523202414595112-3.jpg[/img]

General
Unique ID                                : 146198499142237314035715941881716574910 (0x6DFCCE860139270BC9BB62D993768ABE)
Complete name                            : Star Trek Discovery S05E09 Lagrange Point 1080p AMZN WEB-DL DDP5 1 H 264-NTb.mkv
Format                                   : Matroska
Format version                           : Version 4
File size                                : 2.39 GiB
Duration                                 : 46 min 56 s
Overall bit rate                         : 7 274 kb/s
Frame rate                               : 23.976 FPS
Writing application                      : mkvmerge v81.0 ('Milliontown') 64-bit
Writing library                          : libebml v1.4.4 + libmatroska v1.7.1

Video
ID                                       : 1
Format                                   : AVC
Format/Info                              : Advanced Video Codec
Format profile                           : High@L4
Format settings                          : CABAC / 4 Ref Frames
Format settings, CABAC                   : Yes
Format settings, Reference frames        : 4 frames
Codec ID                                 : V_MPEG4/ISO/AVC
Duration                                 : 46 min 56 s
Bit rate mode                            : Constant
Bit rate                                 : 6 631 kb/s
Nominal bit rate                         : 10 000 kb/s
Width                                    : 1 920 pixels
Height                                   : 800 pixels
Display aspect ratio                     : 2.40:1
Frame rate mode                          : Constant
Frame rate                               : 23.976 (24000/1001) FPS
Color space                              : YUV
Chroma subsampling                       : 4:2:0
Bit depth                                : 8 bits
Scan type                                : Progressive
Bits/(Pixel*Frame)                       : 0.180
Stream size                              : 2.17 GiB (91%)
Default                                  : Yes
Forced                                   : No
Color range                              : Limited
Color primaries                          : BT.709
Transfer characteristics                 : BT.709
Matrix coefficients                      : BT.709

Audio
ID                                       : 2
Format                                   : E-AC-3
Format/Info                              : Enhanced AC-3
Commercial name                          : Dolby Digital Plus
Codec ID                                 : A_EAC3
Duration                                 : 46 min 56 s
Bit rate mode                            : Constant
Bit rate                                 : 640 kb/s
Channel(s)                               : 6 channels
Channel layout                           : L R C LFE Ls Rs
Sampling rate                            : 48.0 kHz
Frame rate                               : 31.250 FPS (1536 SPF)
Compression mode                         : Lossy
Stream size                              : 215 MiB (9%)
Language                                 : English (US)
Service kind                             : Complete Main
Default                                  : Yes
Forced                                   : No

Text #1
ID                                       : 3
Format                                   : UTF-8
Codec ID                                 : S_TEXT/UTF8
Codec ID/Info                            : UTF-8 Plain Text
Duration                                 : 45 min 31 s
Bit rate                                 : 84 b/s
Frame rate                               : 0.314 FPS
Count of elements                        : 859
Stream size                              : 28.3 KiB (0%)
Language                                 : English (US)
Default                                  : No
Forced                                   : No

Text #2
ID                                       : 4
Format                                   : UTF-8
Codec ID                                 : S_TEXT/UTF8
Codec ID/Info                            : UTF-8 Plain Text
Duration                                 : 45 min 55 s
Bit rate                                 : 90 b/s
Frame rate                               : 0.328 FPS
Count of elements                        : 905
Stream size                              : 30.3 KiB (0%)
Title                                    : SDH
Language                                 : English (US)
Default                                  : No
Forced                                   : No



Download
File Container: MKV
Video/Audio Codec: H264 (HIGH) EAC3
Video Resolution: 1920x800

1 Response to "[RR/NF] Star Trek Discovery S05E09 Lagrange Point 1080p AMZN WEB-DL DDP5 1 H 264-NTb (2.4GB)"
05/23/24
23:51:09
ReadyPlayerOne

Thank You

Please Login to post a comment.
If you don't have any account, please Register.
  • Subscribe my Feeds
  • Facebook
Encoding Queue:  x264  x265

Latest Episodes

Popular Movies and TV Shows

  • Mayor of Kingstown
  • My Adventures with Superman
  • Holy Marvels with Dennis Quaid
  • Christmas Is Canceled
  • The Body Stealers
  • Satan's Children
  • Interview with the Vampire
  • Hotel Cocaine
  • Daaaaaali!
  • Walker
  • Octopussy
  • Cats in the Museum
  • Ladies in Black
  • Billy the Kid
  • The 11th Hour
  • Kung Fu Hustle
  • Licence to Kill
  • Look to the Light
  • WWE NXT
  • The Loud House
  • The Bold and the Beautiful
  • There's Something About Mary
  • Vice News Presents: Mass Shooting America
  • Inside Out 2
  • The Daily Show

Recent Comments

Archives