Sign Up   |   Sign In  
Mayor of KingstownBilly the KidTeen Mom: The Next ChapterStars and RosesConcrete UtopiaLove IslandLicence to KillKung Fu HustleLook to the LightDoctor ClimaxOn Patrol: LiveThe Bold and the BeautifulThe Loud HouseWelcome to WrexhamVice News Presents: Mass Shooting AmericaThere's Something About MaryMy Sexual Abuse: The SitcomWWE NXTCatfish: The TV ShowWalkerEnter the Clones of BruceImmaculateInside Out 2The Daily ShowSurvivor

Announcements

05/30

2024

1

Comments

Star Trek Discovery S05E10 Life Itself 720p AMZN WEB-DL DDP5 1 H 264-FLUX
[RR/NF]
Size: 2.1GB mkv H264 (HIGH) / EAC3  HD  1248x520

Star Trek: Discovery
File Information
[img]http://lookpic.com/cdn/i2/t/0530202408443265-1.jpg[/img]
[img]http://lookpic.com/cdn/i2/t/0530202408443265-2.jpg[/img]
[img]http://lookpic.com/cdn/i2/t/0530202408443265-3.jpg[/img]

General
Unique ID                                : 159558460278852680382629433731735097941 (0x7809D77694774B8C61F76CF6C9F01255)
Complete name                            : Star Trek Discovery S05E10 Life Itself 720p AMZN WEB-DL DDP5 1 H 264-FLUX.mkv
Format                                   : Matroska
Format version                           : Version 4
File size                                : 2.05 GiB
Duration                                 : 1 h 25 min
Overall bit rate                         : 3 434 kb/s
Frame rate                               : 23.976 FPS
Writing application                      : mkvmerge v79.0 ('Funeral Pyres') 64-bit
Writing library                          : libebml v1.4.4 + libmatroska v1.7.1

Video
ID                                       : 1
Format                                   : AVC
Format/Info                              : Advanced Video Codec
Format profile                           : High@L3.1
Format settings                          : CABAC / 4 Ref Frames
Format settings, CABAC                   : Yes
Format settings, Reference frames        : 4 frames
Codec ID                                 : V_MPEG4/ISO/AVC
Duration                                 : 1 h 25 min
Bit rate mode                            : Constant
Bit rate                                 : 2 792 kb/s
Nominal bit rate                         : 4 000 kb/s
Width                                    : 1 248 pixels
Height                                   : 520 pixels
Display aspect ratio                     : 2.40:1
Frame rate mode                          : Constant
Frame rate                               : 23.976 (24000/1001) FPS
Color space                              : YUV
Chroma subsampling                       : 4:2:0
Bit depth                                : 8 bits
Scan type                                : Progressive
Bits/(Pixel*Frame)                       : 0.179
Stream size                              : 1.67 GiB (81%)
Language                                 : English (US)
Default                                  : Yes
Forced                                   : No
Color range                              : Limited
Color primaries                          : BT.709
Transfer characteristics                 : BT.709
Matrix coefficients                      : BT.709

Audio
ID                                       : 2
Format                                   : E-AC-3
Format/Info                              : Enhanced AC-3
Commercial name                          : Dolby Digital Plus
Codec ID                                 : A_EAC3
Duration                                 : 1 h 25 min
Bit rate mode                            : Constant
Bit rate                                 : 640 kb/s
Channel(s)                               : 6 channels
Channel layout                           : L R C LFE Ls Rs
Sampling rate                            : 48.0 kHz
Frame rate                               : 31.250 FPS (1536 SPF)
Compression mode                         : Lossy
Stream size                              : 392 MiB (19%)
Language                                 : English (US)
Service kind                             : Complete Main
Default                                  : Yes
Forced                                   : No

Text #1
ID                                       : 3
Format                                   : UTF-8
Codec ID                                 : S_TEXT/UTF8
Codec ID/Info                            : UTF-8 Plain Text
Duration                                 : 1 h 24 min
Bit rate                                 : 56 b/s
Frame rate                               : 0.231 FPS
Count of elements                        : 1168
Stream size                              : 35.1 KiB (0%)
Language                                 : English (US)
Default                                  : No
Forced                                   : No

Text #2
ID                                       : 4
Format                                   : UTF-8
Codec ID                                 : S_TEXT/UTF8
Codec ID/Info                            : UTF-8 Plain Text
Duration                                 : 1 h 24 min
Bit rate                                 : 61 b/s
Frame rate                               : 0.261 FPS
Count of elements                        : 1324
Stream size                              : 37.9 KiB (0%)
Title                                    : SDH
Language                                 : English (US)
Default                                  : No
Forced                                   : No

Menu
00:00:00.000                             : en:Scene 1
00:00:26.000                             : en:Recap
00:02:49.000                             : en:Scene 2
00:11:24.000                             : en:Intro
00:12:53.000                             : en:Scene 3
01:24:27.000                             : en:End Credits



Download
File Container: MKV
Video/Audio Codec: H264 (HIGH) EAC3
Video Resolution: 1248x520

1 Response to "[RR/NF] Star Trek Discovery S05E10 Life Itself 720p AMZN WEB-DL DDP5 1 H 264-FLUX (2.1GB)"
05/30/24
11:36:07
ReadyPlayerOne

Thank You

Please Login to post a comment.
If you don't have any account, please Register.
  • Subscribe my Feeds
  • Facebook
Encoding Queue:  x264  x265

Latest Episodes

Popular Movies and TV Shows

  • Mayor of Kingstown
  • Billy the Kid
  • Teen Mom: The Next Chapter
  • Stars and Roses
  • Concrete Utopia
  • Love Island
  • Licence to Kill
  • Kung Fu Hustle
  • Look to the Light
  • Doctor Climax
  • On Patrol: Live
  • The Bold and the Beautiful
  • The Loud House
  • Welcome to Wrexham
  • Vice News Presents: Mass Shooting America
  • There's Something About Mary
  • My Sexual Abuse: The Sitcom
  • WWE NXT
  • Catfish: The TV Show
  • Walker
  • Enter the Clones of Bruce
  • Immaculate
  • Inside Out 2
  • The Daily Show
  • Survivor

Recent Comments

Archives