Sign Up   |   Sign In  
Ghostbusters: Frozen EmpireX-Men '97All You Need Is DeathFeudBlood Free2024 CMT Music AwardsStar Wars: The Bad BatchThe Cleaning LadyUnder the BridgeEvil Does Not ExistThe BricklayerThe LoraxFBIFBI: InternationalFBI: Most WantedGodzilla x Kong: The New EmpireAn American Bombing: The Road to April 19thLa margeShogunPalm RoyaleAlert: Missing Persons UnitImmaculateDune: Part TwoJimmy Carr: Natural Born KillerFallout

Announcements

02/21

2024

No

Comments

Star Wars The Bad Batch S03E02 Paths Unknown 720p DSNP WEB-DL DDP5 1 H 264-NTb
[RR/NF/CU]
Size: 531MB mkv H264 (HIGH) / EAC3  HD  1280x720

Star Wars: The Bad Batch
File Information
[img]http://lookpic.com/cdn/i2/t/0221202410031174-1.jpg[/img]
[img]http://lookpic.com/cdn/i2/t/0221202410031174-2.jpg[/img]
[img]http://lookpic.com/cdn/i2/t/0221202410031174-3.jpg[/img]

General
Unique ID                                : 324733559983180676614247156729747062125 (0xF44D68A157F4BF56D2A224779CC3BD6D)
Complete name                            : Star.Wars.The.Bad.Batch.S03E02.Paths.Unknown.720p.DSNP.WEB-DL.DDP5.1.H.264-NTb.mkv
Format                                   : Matroska
Format version                           : Version 4
File size                                : 531 MiB
Duration                                 : 25 min 28 s
Overall bit rate mode                    : Variable
Overall bit rate                         : 2 914 kb/s
Frame rate                               : 24.000 FPS
Writing application                      : mkvmerge v81.0 ('Milliontown') 64-bit
Writing library                          : libebml v1.4.4 + libmatroska v1.7.1

Video
ID                                       : 1
Format                                   : AVC
Format/Info                              : Advanced Video Codec
Format profile                           : High@L3.1
Format settings                          : CABAC / 4 Ref Frames
Format settings, CABAC                   : Yes
Format settings, Reference frames        : 4 frames
Codec ID                                 : V_MPEG4/ISO/AVC
Duration                                 : 25 min 28 s
Bit rate mode                            : Variable
Bit rate                                 : 2 654 kb/s
Maximum bit rate                         : 6 375 kb/s
Width                                    : 1 280 pixels
Height                                   : 720 pixels
Display aspect ratio                     : 16:9
Frame rate mode                          : Constant
Frame rate                               : 24.000 FPS
Color space                              : YUV
Chroma subsampling                       : 4:2:0
Bit depth                                : 8 bits
Scan type                                : Progressive
Bits/(Pixel*Frame)                       : 0.120
Time code of first frame                 : 00:00:00:0000000000
Stream size                              : 484 MiB (91%)
Default                                  : Yes
Forced                                   : No
Color range                              : Limited
Color primaries                          : BT.709
Transfer characteristics                 : BT.709
Matrix coefficients                      : BT.709

Audio
ID                                       : 2
Format                                   : E-AC-3
Format/Info                              : Enhanced AC-3
Commercial name                          : Dolby Digital Plus
Codec ID                                 : A_EAC3
Duration                                 : 25 min 28 s
Bit rate mode                            : Constant
Bit rate                                 : 256 kb/s
Channel(s)                               : 6 channels
Channel layout                           : L R C LFE Ls Rs
Sampling rate                            : 48.0 kHz
Frame rate                               : 31.250 FPS (1536 SPF)
Compression mode                         : Lossy
Stream size                              : 46.7 MiB (9%)
Language                                 : English
Service kind                             : Complete Main
Default                                  : Yes
Forced                                   : No

Text #1
ID                                       : 3
Format                                   : UTF-8
Codec ID                                 : S_TEXT/UTF8
Codec ID/Info                            : UTF-8 Plain Text
Duration                                 : 23 min 22 s
Bit rate                                 : 42 b/s
Frame rate                               : 0.175 FPS
Count of elements                        : 246
Stream size                              : 7.22 KiB (0%)
Language                                 : English
Default                                  : No
Forced                                   : No

Text #2
ID                                       : 4
Format                                   : UTF-8
Codec ID                                 : S_TEXT/UTF8
Codec ID/Info                            : UTF-8 Plain Text
Duration                                 : 23 min 27 s
Bit rate                                 : 53 b/s
Frame rate                               : 0.234 FPS
Count of elements                        : 329
Stream size                              : 9.19 KiB (0%)
Title                                    : SDH
Language                                 : English
Default                                  : No
Forced                                   : No

Text #3
ID                                       : 5
Format                                   : UTF-8
Codec ID                                 : S_TEXT/UTF8
Codec ID/Info                            : UTF-8 Plain Text
Duration                                 : 24 min 55 s
Bit rate                                 : 35 b/s
Frame rate                               : 0.160 FPS
Count of elements                        : 239
Stream size                              : 6.55 KiB (0%)
Language                                 : Czech
Default                                  : No
Forced                                   : No

Text #4
ID                                       : 6
Format                                   : UTF-8
Codec ID                                 : S_TEXT/UTF8
Codec ID/Info                            : UTF-8 Plain Text
Duration                                 : 24 min 55 s
Bit rate                                 : 39 b/s
Frame rate                               : 0.165 FPS
Count of elements                        : 247
Stream size                              : 7.21 KiB (0%)
Language                                 : Danish
Default                                  : No
Forced                                   : No

Text #5
ID                                       : 7
Format                                   : UTF-8
Codec ID                                 : S_TEXT/UTF8
Codec ID/Info                            : UTF-8 Plain Text
Duration                                 : 24 min 51 s
Bit rate                                 : 39 b/s
Frame rate                               : 0.145 FPS
Count of elements                        : 217
Stream size                              : 7.10 KiB (0%)
Language                                 : German
Default                                  : No
Forced                                   : No

Text #6
ID                                       : 8
Format                                   : UTF-8
Codec ID                                 : S_TEXT/UTF8
Codec ID/Info                            : UTF-8 Plain Text
Duration                                 : 24 min 51 s
Bit rate                                 : 70 b/s
Frame rate                               : 0.158 FPS
Count of elements                        : 235
Stream size                              : 12.8 KiB (0%)
Language                                 : Greek
Default                                  : No
Forced                                   : No

Text #7
ID                                       : 9
Format                                   : UTF-8
Codec ID                                 : S_TEXT/UTF8
Codec ID/Info                            : UTF-8 Plain Text
Duration                                 : 24 min 51 s
Bit rate                                 : 38 b/s
Frame rate                               : 0.152 FPS
Count of elements                        : 227
Stream size                              : 6.97 KiB (0%)
Title                                    : Spanish (Latin America)
Language                                 : Spanish (Latin America)
Default                                  : No
Forced                                   : No

Text #8
ID                                       : 10
Format                                   : UTF-8
Codec ID                                 : S_TEXT/UTF8
Codec ID/Info                            : UTF-8 Plain Text
Duration                                 : 24 min 55 s
Bit rate                                 : 36 b/s
Frame rate                               : 0.163 FPS
Count of elements                        : 243
Stream size                              : 6.57 KiB (0%)
Title                                    : Spanish (Spain)
Language                                 : Spanish (ES)
Default                                  : No
Forced                                   : No

Text #9
ID                                       : 11
Format                                   : UTF-8
Codec ID                                 : S_TEXT/UTF8
Codec ID/Info                            : UTF-8 Plain Text
Duration                                 : 24 min 51 s
Bit rate                                 : 35 b/s
Frame rate                               : 0.156 FPS
Count of elements                        : 233
Stream size                              : 6.46 KiB (0%)
Language                                 : Finnish
Default                                  : No
Forced                                   : No

Text #10
ID                                       : 12
Format                                   : UTF-8
Codec ID                                 : S_TEXT/UTF8
Codec ID/Info                            : UTF-8 Plain Text
Duration                                 : 24 min 51 s
Bit rate                                 : 38 b/s
Frame rate                               : 0.165 FPS
Count of elements                        : 246
Stream size                              : 7.09 KiB (0%)
Language                                 : French (FR)
Default                                  : No
Forced                                   : No

Text #11
ID                                       : 13
Format                                   : UTF-8
Codec ID                                 : S_TEXT/UTF8
Codec ID/Info                            : UTF-8 Plain Text
Duration                                 : 24 min 55 s
Bit rate                                 : 38 b/s
Frame rate                               : 0.163 FPS
Count of elements                        : 243
Stream size                              : 7.03 KiB (0%)
Language                                 : Hungarian
Default                                  : No
Forced                                   : No

Text #12
ID                                       : 14
Format                                   : UTF-8
Codec ID                                 : S_TEXT/UTF8
Codec ID/Info                            : UTF-8 Plain Text
Duration                                 : 24 min 51 s
Bit rate                                 : 39 b/s
Frame rate                               : 0.160 FPS
Count of elements                        : 239
Stream size                              : 7.25 KiB (0%)
Language                                 : Italian
Default                                  : No
Forced                                   : No

Text #13
ID                                       : 15
Format                                   : UTF-8
Codec ID                                 : S_TEXT/UTF8
Codec ID/Info                            : UTF-8 Plain Text
Duration                                 : 25 min 2 s
Bit rate                                 : 33 b/s
Frame rate                               : 0.156 FPS
Count of elements                        : 234
Stream size                              : 6.23 KiB (0%)
Language                                 : Japanese
Default                                  : No
Forced                                   : No

Text #14
ID                                       : 16
Format                                   : UTF-8
Codec ID                                 : S_TEXT/UTF8
Codec ID/Info                            : UTF-8 Plain Text
Duration                                 : 25 min 5 s
Bit rate                                 : 40 b/s
Frame rate                               : 0.165 FPS
Count of elements                        : 248
Stream size                              : 7.41 KiB (0%)
Language                                 : Korean
Default                                  : No
Forced                                   : No

Text #15
ID                                       : 17
Format                                   : UTF-8
Codec ID                                 : S_TEXT/UTF8
Codec ID/Info                            : UTF-8 Plain Text
Duration                                 : 24 min 51 s
Bit rate                                 : 35 b/s
Frame rate                               : 0.123 FPS
Count of elements                        : 183
Stream size                              : 6.55 KiB (0%)
Language                                 : Dutch
Default                                  : No
Forced                                   : No

Text #16
ID                                       : 18
Format                                   : UTF-8
Codec ID                                 : S_TEXT/UTF8
Codec ID/Info                            : UTF-8 Plain Text
Duration                                 : 24 min 55 s
Bit rate                                 : 37 b/s
Frame rate                               : 0.153 FPS
Count of elements                        : 229
Stream size                              : 6.83 KiB (0%)
Language                                 : Norwegian
Default                                  : No
Forced                                   : No

Text #17
ID                                       : 19
Format                                   : UTF-8
Codec ID                                 : S_TEXT/UTF8
Codec ID/Info                            : UTF-8 Plain Text
Duration                                 : 25 min 5 s
Bit rate                                 : 34 b/s
Frame rate                               : 0.164 FPS
Count of elements                        : 247
Stream size                              : 6.43 KiB (0%)
Language                                 : Polish
Default                                  : No
Forced                                   : No

Text #18
ID                                       : 20
Format                                   : UTF-8
Codec ID                                 : S_TEXT/UTF8
Codec ID/Info                            : UTF-8 Plain Text
Duration                                 : 24 min 51 s
Bit rate                                 : 41 b/s
Frame rate                               : 0.147 FPS
Count of elements                        : 220
Stream size                              : 7.48 KiB (0%)
Title                                    : Portuguese (Brazil)
Language                                 : Portuguese (BR)
Default                                  : No
Forced                                   : No

Text #19
ID                                       : 21
Format                                   : UTF-8
Codec ID                                 : S_TEXT/UTF8
Codec ID/Info                            : UTF-8 Plain Text
Duration                                 : 24 min 55 s
Bit rate                                 : 41 b/s
Frame rate                               : 0.164 FPS
Count of elements                        : 245
Stream size                              : 7.60 KiB (0%)
Title                                    : Portuguese (Portugal)
Language                                 : Portuguese (PT)
Default                                  : No
Forced                                   : No

Text #20
ID                                       : 22
Format                                   : UTF-8
Codec ID                                 : S_TEXT/UTF8
Codec ID/Info                            : UTF-8 Plain Text
Duration                                 : 25 min 5 s
Bit rate                                 : 37 b/s
Frame rate                               : 0.123 FPS
Count of elements                        : 185
Stream size                              : 6.85 KiB (0%)
Language                                 : Romanian
Default                                  : No
Forced                                   : No

Text #21
ID                                       : 23
Format                                   : UTF-8
Codec ID                                 : S_TEXT/UTF8
Codec ID/Info                            : UTF-8 Plain Text
Duration                                 : 24 min 55 s
Bit rate                                 : 37 b/s
Frame rate                               : 0.165 FPS
Count of elements                        : 247
Stream size                              : 6.77 KiB (0%)
Language                                 : Slovak
Default                                  : No
Forced                                   : No

Text #22
ID                                       : 24
Format                                   : UTF-8
Codec ID                                 : S_TEXT/UTF8
Codec ID/Info                            : UTF-8 Plain Text
Duration                                 : 24 min 55 s
Bit rate                                 : 37 b/s
Frame rate                               : 0.165 FPS
Count of elements                        : 247
Stream size                              : 6.92 KiB (0%)
Language                                 : Swedish
Default                                  : No
Forced                                   : No

Text #23
ID                                       : 25
Format                                   : UTF-8
Codec ID                                 : S_TEXT/UTF8
Codec ID/Info                            : UTF-8 Plain Text
Duration                                 : 25 min 5 s
Bit rate                                 : 33 b/s
Frame rate                               : 0.165 FPS
Count of elements                        : 248
Stream size                              : 6.19 KiB (0%)
Title                                    : Chinese (Hong Kong SAR China)
Language                                 : Chinese (HK)
Default                                  : No
Forced                                   : No

Text #24
ID                                       : 26
Format                                   : UTF-8
Codec ID                                 : S_TEXT/UTF8
Codec ID/Info                            : UTF-8 Plain Text
Duration                                 : 25 min 5 s
Bit rate                                 : 33 b/s
Frame rate                               : 0.165 FPS
Count of elements                        : 248
Stream size                              : 6.11 KiB (0%)
Title                                    : Chinese (Traditional)
Language                                 : Chinese (Traditional)
Default                                  : No
Forced                                   : No



Download
File Container: MKV
Video/Audio Codec: H264 (HIGH) EAC3
Video Resolution: 1280x720
Please Login to post a comment.
If you don't have any account, please Register.
  • Subscribe my Feeds
  • Facebook
Encoding Queue:  x264  x265

Latest Episodes

Popular Movies and TV Shows

  • Ghostbusters: Frozen Empire
  • X-Men '97
  • All You Need Is Death
  • Feud
  • Blood Free
  • 2024 CMT Music Awards
  • Star Wars: The Bad Batch
  • The Cleaning Lady
  • Under the Bridge
  • Evil Does Not Exist
  • The Bricklayer
  • The Lorax
  • FBI
  • FBI: International
  • FBI: Most Wanted
  • Godzilla x Kong: The New Empire
  • An American Bombing: The Road to April 19th
  • La marge
  • Shogun
  • Palm Royale
  • Alert: Missing Persons Unit
  • Immaculate
  • Dune: Part Two
  • Jimmy Carr: Natural Born Killer
  • Fallout

Recent Comments

  • timt:

    Junk

  • timt:

    CAM Audio

  • timt:

    Hard Coded SUMS! Russian, I Think.

  • ubirattan:

    Mandem um Fikper, por favor.

  • kellym2: No answer yet for my query - why all the episodes "server under maintenance" on some episo...
  • Majnon:

    Rapidrar links are dead :(

  • Rake:

    Loads of "Server is under maintenance" with RR theese days...

  • kellym2: Why am I getting "Server is in maintenance mode" on some episodes of a series and not on o...
  • Bud:

    Are you ever going to put up Thursday's episode with Liev Schreiber?

  • alp-engin:

    When will that maintenance be over? Please...

  • mentalityx:

    Rad bloke

  • DownloadHostInspector:

    so far these RMTeam uploads always have a working link. DownloadHostInspector approved!

  • DownloadHostInspector:

    ah yes, this upload has a host that works. clicknupload. DownloadHostInspector approved!

  • DownloadHostInspector: Why are all the download hosts trash? none of them let you download it

Archives