Sign Up   |   Sign In  
ShogunNCISImmaculateNCIS: Hawai'iSweet DreamsJimmy Carr: Natural Born KillerThe NeighborhoodSpring BreakersBob Hearts AbisholaAll AmericanThe Fantastic Journey of Margot & MargueriteThe Crow: SalvationThe SympathizerTrackerThe Bold and the BeautifulDune: Part TwoThe 100th: Billy Joel at Madison Square Garden - The Greatest Arena Run of All TimeKiller Fortune TellerThe Great NorthHundreds of BeaversFamily GuyModel HouseWhen Calls the HeartAbba: How They Won EurovisionFallout

Announcements

02/21

2024

No

Comments

Star Wars The Bad Batch S03E03 Shadows of Tantiss 720p DSNP WEB-DL DDP5 1 H 264-NTb
[RR/NF/CU]
Size: 566MB mkv H264 (HIGH) / EAC3  HD  1280x720

Star Wars: The Bad Batch
File Information
[img]http://lookpic.com/cdn/i2/t/0221202410031626-1.jpg[/img]
[img]http://lookpic.com/cdn/i2/t/0221202410031626-2.jpg[/img]
[img]http://lookpic.com/cdn/i2/t/0221202410031626-3.jpg[/img]

General
Unique ID                                : 218410651636604066956558376284506812163 (0xA4505C85C26816AB1E3D307B33B7EF03)
Complete name                            : Star.Wars.The.Bad.Batch.S03E03.Shadows.of.Tantiss.720p.DSNP.WEB-DL.DDP5.1.H.264-NTb.mkv
Format                                   : Matroska
Format version                           : Version 4
File size                                : 566 MiB
Duration                                 : 25 min 18 s
Overall bit rate mode                    : Variable
Overall bit rate                         : 3 129 kb/s
Frame rate                               : 24.000 FPS
Writing application                      : mkvmerge v81.0 ('Milliontown') 64-bit
Writing library                          : libebml v1.4.4 + libmatroska v1.7.1

Video
ID                                       : 1
Format                                   : AVC
Format/Info                              : Advanced Video Codec
Format profile                           : High@L3.1
Format settings                          : CABAC / 4 Ref Frames
Format settings, CABAC                   : Yes
Format settings, Reference frames        : 4 frames
Codec ID                                 : V_MPEG4/ISO/AVC
Duration                                 : 25 min 18 s
Bit rate mode                            : Variable
Bit rate                                 : 2 869 kb/s
Maximum bit rate                         : 6 375 kb/s
Width                                    : 1 280 pixels
Height                                   : 720 pixels
Display aspect ratio                     : 16:9
Frame rate mode                          : Constant
Frame rate                               : 24.000 FPS
Color space                              : YUV
Chroma subsampling                       : 4:2:0
Bit depth                                : 8 bits
Scan type                                : Progressive
Bits/(Pixel*Frame)                       : 0.130
Time code of first frame                 : 00:00:00:0000000000
Stream size                              : 519 MiB (92%)
Default                                  : Yes
Forced                                   : No
Color range                              : Limited
Color primaries                          : BT.709
Transfer characteristics                 : BT.709
Matrix coefficients                      : BT.709

Audio
ID                                       : 2
Format                                   : E-AC-3
Format/Info                              : Enhanced AC-3
Commercial name                          : Dolby Digital Plus
Codec ID                                 : A_EAC3
Duration                                 : 25 min 18 s
Bit rate mode                            : Constant
Bit rate                                 : 256 kb/s
Channel(s)                               : 6 channels
Channel layout                           : L R C LFE Ls Rs
Sampling rate                            : 48.0 kHz
Frame rate                               : 31.250 FPS (1536 SPF)
Compression mode                         : Lossy
Stream size                              : 46.3 MiB (8%)
Language                                 : English
Service kind                             : Complete Main
Default                                  : Yes
Forced                                   : No

Text #1
ID                                       : 3
Format                                   : UTF-8
Codec ID                                 : S_TEXT/UTF8
Codec ID/Info                            : UTF-8 Plain Text
Duration                                 : 23 min 22 s
Bit rate                                 : 37 b/s
Frame rate                               : 0.163 FPS
Count of elements                        : 228
Stream size                              : 6.35 KiB (0%)
Language                                 : English
Default                                  : No
Forced                                   : No

Text #2
ID                                       : 4
Format                                   : UTF-8
Codec ID                                 : S_TEXT/UTF8
Codec ID/Info                            : UTF-8 Plain Text
Duration                                 : 23 min 38 s
Bit rate                                 : 48 b/s
Frame rate                               : 0.228 FPS
Count of elements                        : 323
Stream size                              : 8.42 KiB (0%)
Title                                    : SDH
Language                                 : English
Default                                  : No
Forced                                   : No

Text #3
ID                                       : 5
Format                                   : UTF-8
Codec ID                                 : S_TEXT/UTF8
Codec ID/Info                            : UTF-8 Plain Text
Duration                                 : 24 min 44 s
Bit rate                                 : 32 b/s
Frame rate                               : 0.150 FPS
Count of elements                        : 223
Stream size                              : 5.98 KiB (0%)
Language                                 : Czech
Default                                  : No
Forced                                   : No

Text #4
ID                                       : 6
Format                                   : UTF-8
Codec ID                                 : S_TEXT/UTF8
Codec ID/Info                            : UTF-8 Plain Text
Duration                                 : 24 min 44 s
Bit rate                                 : 35 b/s
Frame rate                               : 0.156 FPS
Count of elements                        : 232
Stream size                              : 6.49 KiB (0%)
Language                                 : Danish
Default                                  : No
Forced                                   : No

Text #5
ID                                       : 7
Format                                   : UTF-8
Codec ID                                 : S_TEXT/UTF8
Codec ID/Info                            : UTF-8 Plain Text
Duration                                 : 24 min 41 s
Bit rate                                 : 35 b/s
Frame rate                               : 0.142 FPS
Count of elements                        : 210
Stream size                              : 6.35 KiB (0%)
Language                                 : German
Default                                  : No
Forced                                   : No

Text #6
ID                                       : 8
Format                                   : UTF-8
Codec ID                                 : S_TEXT/UTF8
Codec ID/Info                            : UTF-8 Plain Text
Duration                                 : 24 min 41 s
Bit rate                                 : 61 b/s
Frame rate                               : 0.153 FPS
Count of elements                        : 227
Stream size                              : 11.2 KiB (0%)
Language                                 : Greek
Default                                  : No
Forced                                   : No

Text #7
ID                                       : 9
Format                                   : UTF-8
Codec ID                                 : S_TEXT/UTF8
Codec ID/Info                            : UTF-8 Plain Text
Duration                                 : 24 min 41 s
Bit rate                                 : 34 b/s
Frame rate                               : 0.142 FPS
Count of elements                        : 211
Stream size                              : 6.26 KiB (0%)
Title                                    : Spanish (Latin America)
Language                                 : Spanish (Latin America)
Default                                  : No
Forced                                   : No

Text #8
ID                                       : 10
Format                                   : UTF-8
Codec ID                                 : S_TEXT/UTF8
Codec ID/Info                            : UTF-8 Plain Text
Duration                                 : 24 min 44 s
Bit rate                                 : 34 b/s
Frame rate                               : 0.152 FPS
Count of elements                        : 225
Stream size                              : 6.22 KiB (0%)
Title                                    : Spanish (Spain)
Language                                 : Spanish (ES)
Default                                  : No
Forced                                   : No

Text #9
ID                                       : 11
Format                                   : UTF-8
Codec ID                                 : S_TEXT/UTF8
Codec ID/Info                            : UTF-8 Plain Text
Duration                                 : 24 min 41 s
Bit rate                                 : 32 b/s
Frame rate                               : 0.153 FPS
Count of elements                        : 226
Stream size                              : 5.89 KiB (0%)
Language                                 : Finnish
Default                                  : No
Forced                                   : No

Text #10
ID                                       : 12
Format                                   : UTF-8
Codec ID                                 : S_TEXT/UTF8
Codec ID/Info                            : UTF-8 Plain Text
Duration                                 : 24 min 41 s
Bit rate                                 : 35 b/s
Frame rate                               : 0.156 FPS
Count of elements                        : 231
Stream size                              : 6.40 KiB (0%)
Language                                 : French (FR)
Default                                  : No
Forced                                   : No

Text #11
ID                                       : 13
Format                                   : UTF-8
Codec ID                                 : S_TEXT/UTF8
Codec ID/Info                            : UTF-8 Plain Text
Duration                                 : 24 min 44 s
Bit rate                                 : 36 b/s
Frame rate                               : 0.150 FPS
Count of elements                        : 223
Stream size                              : 6.62 KiB (0%)
Language                                 : Hungarian
Default                                  : No
Forced                                   : No

Text #12
ID                                       : 14
Format                                   : UTF-8
Codec ID                                 : S_TEXT/UTF8
Codec ID/Info                            : UTF-8 Plain Text
Duration                                 : 24 min 41 s
Bit rate                                 : 36 b/s
Frame rate                               : 0.151 FPS
Count of elements                        : 223
Stream size                              : 6.62 KiB (0%)
Language                                 : Italian
Default                                  : No
Forced                                   : No

Text #13
ID                                       : 15
Format                                   : UTF-8
Codec ID                                 : S_TEXT/UTF8
Codec ID/Info                            : UTF-8 Plain Text
Duration                                 : 24 min 52 s
Bit rate                                 : 33 b/s
Frame rate                               : 0.148 FPS
Count of elements                        : 221
Stream size                              : 6.08 KiB (0%)
Language                                 : Japanese
Default                                  : No
Forced                                   : No

Text #14
ID                                       : 16
Format                                   : UTF-8
Codec ID                                 : S_TEXT/UTF8
Codec ID/Info                            : UTF-8 Plain Text
Duration                                 : 24 min 55 s
Bit rate                                 : 37 b/s
Frame rate                               : 0.155 FPS
Count of elements                        : 232
Stream size                              : 6.88 KiB (0%)
Language                                 : Korean
Default                                  : No
Forced                                   : No

Text #15
ID                                       : 17
Format                                   : UTF-8
Codec ID                                 : S_TEXT/UTF8
Codec ID/Info                            : UTF-8 Plain Text
Duration                                 : 24 min 41 s
Bit rate                                 : 32 b/s
Frame rate                               : 0.114 FPS
Count of elements                        : 169
Stream size                              : 5.91 KiB (0%)
Language                                 : Dutch
Default                                  : No
Forced                                   : No

Text #16
ID                                       : 18
Format                                   : UTF-8
Codec ID                                 : S_TEXT/UTF8
Codec ID/Info                            : UTF-8 Plain Text
Duration                                 : 24 min 44 s
Bit rate                                 : 34 b/s
Frame rate                               : 0.151 FPS
Count of elements                        : 224
Stream size                              : 6.21 KiB (0%)
Language                                 : Norwegian
Default                                  : No
Forced                                   : No

Text #17
ID                                       : 19
Format                                   : UTF-8
Codec ID                                 : S_TEXT/UTF8
Codec ID/Info                            : UTF-8 Plain Text
Duration                                 : 24 min 55 s
Bit rate                                 : 33 b/s
Frame rate                               : 0.154 FPS
Count of elements                        : 231
Stream size                              : 6.11 KiB (0%)
Language                                 : Polish
Default                                  : No
Forced                                   : No

Text #18
ID                                       : 20
Format                                   : UTF-8
Codec ID                                 : S_TEXT/UTF8
Codec ID/Info                            : UTF-8 Plain Text
Duration                                 : 24 min 41 s
Bit rate                                 : 36 b/s
Frame rate                               : 0.154 FPS
Count of elements                        : 228
Stream size                              : 6.58 KiB (0%)
Title                                    : Portuguese (Brazil)
Language                                 : Portuguese (BR)
Default                                  : No
Forced                                   : No

Text #19
ID                                       : 21
Format                                   : UTF-8
Codec ID                                 : S_TEXT/UTF8
Codec ID/Info                            : UTF-8 Plain Text
Duration                                 : 24 min 44 s
Bit rate                                 : 37 b/s
Frame rate                               : 0.154 FPS
Count of elements                        : 228
Stream size                              : 6.71 KiB (0%)
Title                                    : Portuguese (Portugal)
Language                                 : Portuguese (PT)
Default                                  : No
Forced                                   : No

Text #20
ID                                       : 22
Format                                   : UTF-8
Codec ID                                 : S_TEXT/UTF8
Codec ID/Info                            : UTF-8 Plain Text
Duration                                 : 24 min 55 s
Bit rate                                 : 34 b/s
Frame rate                               : 0.126 FPS
Count of elements                        : 189
Stream size                              : 6.31 KiB (0%)
Language                                 : Romanian
Default                                  : No
Forced                                   : No

Text #21
ID                                       : 23
Format                                   : UTF-8
Codec ID                                 : S_TEXT/UTF8
Codec ID/Info                            : UTF-8 Plain Text
Duration                                 : 24 min 44 s
Bit rate                                 : 32 b/s
Frame rate                               : 0.156 FPS
Count of elements                        : 232
Stream size                              : 5.86 KiB (0%)
Language                                 : Slovak
Default                                  : No
Forced                                   : No

Text #22
ID                                       : 24
Format                                   : UTF-8
Codec ID                                 : S_TEXT/UTF8
Codec ID/Info                            : UTF-8 Plain Text
Duration                                 : 24 min 44 s
Bit rate                                 : 35 b/s
Frame rate                               : 0.156 FPS
Count of elements                        : 232
Stream size                              : 6.44 KiB (0%)
Language                                 : Swedish
Default                                  : No
Forced                                   : No

Text #23
ID                                       : 25
Format                                   : UTF-8
Codec ID                                 : S_TEXT/UTF8
Codec ID/Info                            : UTF-8 Plain Text
Duration                                 : 24 min 55 s
Bit rate                                 : 29 b/s
Frame rate                               : 0.156 FPS
Count of elements                        : 233
Stream size                              : 5.42 KiB (0%)
Title                                    : Chinese (Hong Kong SAR China)
Language                                 : Chinese (HK)
Default                                  : No
Forced                                   : No

Text #24
ID                                       : 26
Format                                   : UTF-8
Codec ID                                 : S_TEXT/UTF8
Codec ID/Info                            : UTF-8 Plain Text
Duration                                 : 24 min 55 s
Bit rate                                 : 29 b/s
Frame rate                               : 0.155 FPS
Count of elements                        : 232
Stream size                              : 5.45 KiB (0%)
Title                                    : Chinese (Traditional)
Language                                 : Chinese (Traditional)
Default                                  : No
Forced                                   : No



Download
File Container: MKV
Video/Audio Codec: H264 (HIGH) EAC3
Video Resolution: 1280x720
Please Login to post a comment.
If you don't have any account, please Register.
  • Subscribe my Feeds
  • Facebook
Encoding Queue:  x264  x265

Latest Episodes

Popular Movies and TV Shows

  • Shogun
  • NCIS
  • Immaculate
  • NCIS: Hawai'i
  • Sweet Dreams
  • Jimmy Carr: Natural Born Killer
  • The Neighborhood
  • Spring Breakers
  • Bob Hearts Abishola
  • All American
  • The Fantastic Journey of Margot & Marguerite
  • The Crow: Salvation
  • The Sympathizer
  • Tracker
  • The Bold and the Beautiful
  • Dune: Part Two
  • The 100th: Billy Joel at Madison Square Garden - The Greatest Arena Run of All Time
  • Killer Fortune Teller
  • The Great North
  • Hundreds of Beavers
  • Family Guy
  • Model House
  • When Calls the Heart
  • Abba: How They Won Eurovision
  • Fallout

Recent Comments

  • kellym2: Why am I getting "Server is in maintenance mode" on some episodes of a series and not on o...
  • Bud:

    Are you ever going to put up Thursday's episode with Liev Schreiber?

  • alp-engin:

    When will that maintenance be over? Please...

  • mentalityx:

    Rad bloke

  • DownloadHostInspector:

    so far these RMTeam uploads always have a working link. DownloadHostInspector approved!

  • DownloadHostInspector:

    ah yes, this upload has a host that works. clicknupload. DownloadHostInspector approved!

  • DownloadHostInspector: Why are all the download hosts trash? none of them let you download it
  • Qua4ratic:

    clicknupload link plz

  • ppoo:

    Please, can you add "Real Time with Bill Maher S22E11" ??

  • theahtisham:

    Kindly upload Ep. 3 and 4 as well.

Archives