Sign Up   |   Sign In  
Full SwingHundreds of BeaversAbba: How They Won EurovisionBar RescuePaint It GoldTadaima, OkaeriThe SympathizerTrackerDune: Part TwoModel HouseThe Great NorthKurt Cobain: Moments That Shook MusicWhen Calls the HeartSullivan's CrossingBeacon 23The Batman vs. DraculaThe ChannelThere's Still TomorrowFalloutShogunS.W.A.T.Trinket BoxThe Taste of ThingsTo Die ForFBI

Announcements

02/28

2024

1

Comments

Star Wars The Bad Batch S03E04 A Different Approach 720p DSNP WEB-DL DDP5 1 H 264-NTb
[RR/NF/CU]
Size: 546MB mkv H264 (HIGH) / EAC3  HD  1280x720

Star Wars: The Bad Batch
File Information
[img]http://lookpic.com/cdn/i2/t/0228202400154221-1.jpg[/img]
[img]http://lookpic.com/cdn/i2/t/0228202400154221-2.jpg[/img]
[img]http://lookpic.com/cdn/i2/t/0228202400154221-3.jpg[/img]

General
Unique ID                                : 5518446207118381730653639688170308531 (0x426D06786991D7FCB5BC40C45C503B3)
Complete name                            : Star.Wars.The.Bad.Batch.S03E04.A.Different.Approach.720p.DSNP.WEB-DL.DDP5.1.H.264-NTb.mkv
Format                                   : Matroska
Format version                           : Version 4
File size                                : 546 MiB
Duration                                 : 25 min 27 s
Overall bit rate mode                    : Variable
Overall bit rate                         : 2 999 kb/s
Frame rate                               : 24.000 FPS
Writing application                      : mkvmerge v81.0 ('Milliontown') 64-bit
Writing library                          : libebml v1.4.4 + libmatroska v1.7.1

Video
ID                                       : 1
Format                                   : AVC
Format/Info                              : Advanced Video Codec
Format profile                           : High@L3.1
Format settings                          : CABAC / 4 Ref Frames
Format settings, CABAC                   : Yes
Format settings, Reference frames        : 4 frames
Codec ID                                 : V_MPEG4/ISO/AVC
Duration                                 : 25 min 27 s
Bit rate mode                            : Variable
Bit rate                                 : 2 739 kb/s
Maximum bit rate                         : 6 375 kb/s
Width                                    : 1 280 pixels
Height                                   : 720 pixels
Display aspect ratio                     : 16:9
Frame rate mode                          : Constant
Frame rate                               : 24.000 FPS
Color space                              : YUV
Chroma subsampling                       : 4:2:0
Bit depth                                : 8 bits
Scan type                                : Progressive
Bits/(Pixel*Frame)                       : 0.124
Time code of first frame                 : 00:00:00:0000000000
Stream size                              : 499 MiB (91%)
Default                                  : Yes
Forced                                   : No
Color range                              : Limited
Color primaries                          : BT.709
Transfer characteristics                 : BT.709
Matrix coefficients                      : BT.709

Audio
ID                                       : 2
Format                                   : E-AC-3
Format/Info                              : Enhanced AC-3
Commercial name                          : Dolby Digital Plus
Codec ID                                 : A_EAC3
Duration                                 : 25 min 27 s
Bit rate mode                            : Constant
Bit rate                                 : 256 kb/s
Channel(s)                               : 6 channels
Channel layout                           : L R C LFE Ls Rs
Sampling rate                            : 48.0 kHz
Frame rate                               : 31.250 FPS (1536 SPF)
Compression mode                         : Lossy
Stream size                              : 46.6 MiB (9%)
Language                                 : English
Service kind                             : Complete Main
Default                                  : Yes
Forced                                   : No

Text #1
ID                                       : 3
Format                                   : UTF-8
Codec ID                                 : S_TEXT/UTF8
Codec ID/Info                            : UTF-8 Plain Text
Duration                                 : 23 min 18 s
Bit rate                                 : 39 b/s
Frame rate                               : 0.163 FPS
Count of elements                        : 228
Stream size                              : 6.80 KiB (0%)
Language                                 : English
Default                                  : No
Forced                                   : No

Text #2
ID                                       : 4
Format                                   : UTF-8
Codec ID                                 : S_TEXT/UTF8
Codec ID/Info                            : UTF-8 Plain Text
Duration                                 : 23 min 26 s
Bit rate                                 : 50 b/s
Frame rate                               : 0.223 FPS
Count of elements                        : 313
Stream size                              : 8.62 KiB (0%)
Title                                    : SDH
Language                                 : English
Default                                  : No
Forced                                   : No

Text #3
ID                                       : 5
Format                                   : UTF-8
Codec ID                                 : S_TEXT/UTF8
Codec ID/Info                            : UTF-8 Plain Text
Duration                                 : 24 min 54 s
Bit rate                                 : 34 b/s
Frame rate                               : 0.152 FPS
Count of elements                        : 227
Stream size                              : 6.28 KiB (0%)
Language                                 : Czech
Default                                  : No
Forced                                   : No

Text #4
ID                                       : 6
Format                                   : UTF-8
Codec ID                                 : S_TEXT/UTF8
Codec ID/Info                            : UTF-8 Plain Text
Duration                                 : 24 min 54 s
Bit rate                                 : 37 b/s
Frame rate                               : 0.155 FPS
Count of elements                        : 231
Stream size                              : 6.85 KiB (0%)
Language                                 : Danish
Default                                  : No
Forced                                   : No

Text #5
ID                                       : 7
Format                                   : UTF-8
Codec ID                                 : S_TEXT/UTF8
Codec ID/Info                            : UTF-8 Plain Text
Duration                                 : 24 min 50 s
Bit rate                                 : 37 b/s
Frame rate                               : 0.146 FPS
Count of elements                        : 217
Stream size                              : 6.75 KiB (0%)
Language                                 : German
Default                                  : No
Forced                                   : No

Text #6
ID                                       : 8
Format                                   : UTF-8
Codec ID                                 : S_TEXT/UTF8
Codec ID/Info                            : UTF-8 Plain Text
Duration                                 : 24 min 50 s
Bit rate                                 : 64 b/s
Frame rate                               : 0.151 FPS
Count of elements                        : 225
Stream size                              : 11.8 KiB (0%)
Language                                 : Greek
Default                                  : No
Forced                                   : No

Text #7
ID                                       : 9
Format                                   : UTF-8
Codec ID                                 : S_TEXT/UTF8
Codec ID/Info                            : UTF-8 Plain Text
Duration                                 : 24 min 50 s
Bit rate                                 : 35 b/s
Frame rate                               : 0.144 FPS
Count of elements                        : 215
Stream size                              : 6.51 KiB (0%)
Title                                    : Spanish (Latin America)
Language                                 : Spanish (Latin America)
Default                                  : No
Forced                                   : No

Text #8
ID                                       : 10
Format                                   : UTF-8
Codec ID                                 : S_TEXT/UTF8
Codec ID/Info                            : UTF-8 Plain Text
Duration                                 : 24 min 54 s
Bit rate                                 : 34 b/s
Frame rate                               : 0.151 FPS
Count of elements                        : 226
Stream size                              : 6.36 KiB (0%)
Title                                    : Spanish (Spain)
Language                                 : Spanish (ES)
Default                                  : No
Forced                                   : No

Text #9
ID                                       : 11
Format                                   : UTF-8
Codec ID                                 : S_TEXT/UTF8
Codec ID/Info                            : UTF-8 Plain Text
Duration                                 : 24 min 50 s
Bit rate                                 : 33 b/s
Frame rate                               : 0.148 FPS
Count of elements                        : 220
Stream size                              : 6.06 KiB (0%)
Language                                 : Finnish
Default                                  : No
Forced                                   : No

Text #10
ID                                       : 12
Format                                   : UTF-8
Codec ID                                 : S_TEXT/UTF8
Codec ID/Info                            : UTF-8 Plain Text
Duration                                 : 24 min 50 s
Bit rate                                 : 36 b/s
Frame rate                               : 0.154 FPS
Count of elements                        : 230
Stream size                              : 6.63 KiB (0%)
Language                                 : French (FR)
Default                                  : No
Forced                                   : No

Text #11
ID                                       : 13
Format                                   : UTF-8
Codec ID                                 : S_TEXT/UTF8
Codec ID/Info                            : UTF-8 Plain Text
Duration                                 : 24 min 54 s
Bit rate                                 : 36 b/s
Frame rate                               : 0.151 FPS
Count of elements                        : 225
Stream size                              : 6.74 KiB (0%)
Language                                 : Hungarian
Default                                  : No
Forced                                   : No

Text #12
ID                                       : 14
Format                                   : UTF-8
Codec ID                                 : S_TEXT/UTF8
Codec ID/Info                            : UTF-8 Plain Text
Duration                                 : 24 min 50 s
Bit rate                                 : 37 b/s
Frame rate                               : 0.152 FPS
Count of elements                        : 226
Stream size                              : 6.89 KiB (0%)
Language                                 : Italian
Default                                  : No
Forced                                   : No

Text #13
ID                                       : 15
Format                                   : UTF-8
Codec ID                                 : S_TEXT/UTF8
Codec ID/Info                            : UTF-8 Plain Text
Duration                                 : 25 min 1 s
Bit rate                                 : 32 b/s
Frame rate                               : 0.156 FPS
Count of elements                        : 234
Stream size                              : 5.98 KiB (0%)
Language                                 : Japanese
Default                                  : No
Forced                                   : No

Text #14
ID                                       : 16
Format                                   : UTF-8
Codec ID                                 : S_TEXT/UTF8
Codec ID/Info                            : UTF-8 Plain Text
Duration                                 : 25 min 4 s
Bit rate                                 : 38 b/s
Frame rate                               : 0.154 FPS
Count of elements                        : 232
Stream size                              : 7.01 KiB (0%)
Language                                 : Korean
Default                                  : No
Forced                                   : No

Text #15
ID                                       : 17
Format                                   : UTF-8
Codec ID                                 : S_TEXT/UTF8
Codec ID/Info                            : UTF-8 Plain Text
Duration                                 : 24 min 50 s
Bit rate                                 : 34 b/s
Frame rate                               : 0.122 FPS
Count of elements                        : 182
Stream size                              : 6.27 KiB (0%)
Language                                 : Dutch
Default                                  : No
Forced                                   : No

Text #16
ID                                       : 18
Format                                   : UTF-8
Codec ID                                 : S_TEXT/UTF8
Codec ID/Info                            : UTF-8 Plain Text
Duration                                 : 24 min 54 s
Bit rate                                 : 35 b/s
Frame rate                               : 0.151 FPS
Count of elements                        : 225
Stream size                              : 6.55 KiB (0%)
Language                                 : Norwegian
Default                                  : No
Forced                                   : No

Text #17
ID                                       : 19
Format                                   : UTF-8
Codec ID                                 : S_TEXT/UTF8
Codec ID/Info                            : UTF-8 Plain Text
Duration                                 : 25 min 4 s
Bit rate                                 : 34 b/s
Frame rate                               : 0.154 FPS
Count of elements                        : 232
Stream size                              : 6.31 KiB (0%)
Language                                 : Polish
Default                                  : No
Forced                                   : No

Text #18
ID                                       : 20
Format                                   : UTF-8
Codec ID                                 : S_TEXT/UTF8
Codec ID/Info                            : UTF-8 Plain Text
Duration                                 : 24 min 50 s
Bit rate                                 : 38 b/s
Frame rate                               : 0.150 FPS
Count of elements                        : 223
Stream size                              : 6.96 KiB (0%)
Title                                    : Portuguese (Brazil)
Language                                 : Portuguese (BR)
Default                                  : No
Forced                                   : No

Text #19
ID                                       : 21
Format                                   : UTF-8
Codec ID                                 : S_TEXT/UTF8
Codec ID/Info                            : UTF-8 Plain Text
Duration                                 : 24 min 54 s
Bit rate                                 : 38 b/s
Frame rate                               : 0.154 FPS
Count of elements                        : 230
Stream size                              : 7.03 KiB (0%)
Title                                    : Portuguese (Portugal)
Language                                 : Portuguese (PT)
Default                                  : No
Forced                                   : No

Text #20
ID                                       : 22
Format                                   : UTF-8
Codec ID                                 : S_TEXT/UTF8
Codec ID/Info                            : UTF-8 Plain Text
Duration                                 : 25 min 4 s
Bit rate                                 : 36 b/s
Frame rate                               : 0.122 FPS
Count of elements                        : 184
Stream size                              : 6.67 KiB (0%)
Language                                 : Romanian
Default                                  : No
Forced                                   : No

Text #21
ID                                       : 23
Format                                   : UTF-8
Codec ID                                 : S_TEXT/UTF8
Codec ID/Info                            : UTF-8 Plain Text
Duration                                 : 24 min 54 s
Bit rate                                 : 34 b/s
Frame rate                               : 0.155 FPS
Count of elements                        : 231
Stream size                              : 6.33 KiB (0%)
Language                                 : Slovak
Default                                  : No
Forced                                   : No

Text #22
ID                                       : 24
Format                                   : UTF-8
Codec ID                                 : S_TEXT/UTF8
Codec ID/Info                            : UTF-8 Plain Text
Duration                                 : 24 min 54 s
Bit rate                                 : 36 b/s
Frame rate                               : 0.155 FPS
Count of elements                        : 231
Stream size                              : 6.72 KiB (0%)
Language                                 : Swedish
Default                                  : No
Forced                                   : No

Text #23
ID                                       : 25
Format                                   : UTF-8
Codec ID                                 : S_TEXT/UTF8
Codec ID/Info                            : UTF-8 Plain Text
Duration                                 : 25 min 4 s
Bit rate                                 : 30 b/s
Frame rate                               : 0.154 FPS
Count of elements                        : 232
Stream size                              : 5.59 KiB (0%)
Title                                    : Chinese (Hong Kong SAR China)
Language                                 : Chinese (HK)
Default                                  : No
Forced                                   : No

Text #24
ID                                       : 26
Format                                   : UTF-8
Codec ID                                 : S_TEXT/UTF8
Codec ID/Info                            : UTF-8 Plain Text
Duration                                 : 25 min 4 s
Bit rate                                 : 30 b/s
Frame rate                               : 0.154 FPS
Count of elements                        : 232
Stream size                              : 5.55 KiB (0%)
Title                                    : Chinese (Traditional)
Language                                 : Chinese (Traditional)
Default                                  : No
Forced                                   : No



Download
File Container: MKV
Video/Audio Codec: H264 (HIGH) EAC3
Video Resolution: 1280x720

1 Response to "[RR/NF/CU] Star Wars The Bad Batch S03E04 A Different Approach 720p DSNP WEB-DL DDP5 1 H 264-NTb (546MB)"
02/28/24
11:48:18
ReadyPlayerOne

Thank You

Please Login to post a comment.
If you don't have any account, please Register.
  • Subscribe my Feeds
  • Facebook
Encoding Queue:  x264  x265

Latest Episodes

Popular Movies and TV Shows

  • Full Swing
  • Hundreds of Beavers
  • Abba: How They Won Eurovision
  • Bar Rescue
  • Paint It Gold
  • Tadaima, Okaeri
  • The Sympathizer
  • Tracker
  • Dune: Part Two
  • Model House
  • The Great North
  • Kurt Cobain: Moments That Shook Music
  • When Calls the Heart
  • Sullivan's Crossing
  • Beacon 23
  • The Batman vs. Dracula
  • The Channel
  • There's Still Tomorrow
  • Fallout
  • Shogun
  • S.W.A.T.
  • Trinket Box
  • The Taste of Things
  • To Die For
  • FBI

Recent Comments

  • Bud:

    Are you ever going to put up Thursday's episode with Liev Schreiber?

  • alp-engin:

    When will that maintenance be over? Please...

  • mentalityx:

    Rad bloke

  • DownloadHostInspector:

    so far these RMTeam uploads always have a working link. DownloadHostInspector approved!

  • DownloadHostInspector:

    ah yes, this upload has a host that works. clicknupload. DownloadHostInspector approved!

  • DownloadHostInspector: Why are all the download hosts trash? none of them let you download it
  • Qua4ratic:

    clicknupload link plz

  • ppoo:

    Please, can you add "Real Time with Bill Maher S22E11" ??

  • theahtisham:

    Kindly upload Ep. 3 and 4 as well.

Archives