Sign Up   |   Sign In  
Young SheldonTrackerThe Name of the RoseTMZ Presents: The Downfall of DiddyThe SummitMad Max: Fury RoadDevil in the FleshThe Green VeilBob's BurgersBodkinQueen of the GypsiesGolden KamuyThe SimpsonsThe EqualizerCSI: VegasBaby DriverChallengersTales of Ordinary MadnessThe SympathizerKrapopolisThe Great NorthTriple FrontierA Walk Among the TombstonesDawn of the Planet of the ApesBeacon 23

Announcements

04/17

2024

1

Comments

Star Wars The Bad Batch S03E13 Into the Breach 1080p DSNP WEB-DL DDP5 1 H 264-FLUX
[RR/NF/CU]
Size: 1.1GB mkv H264 (HIGH) / EAC3  HD  1920x1080

Star Wars: The Bad Batch
File Information
[img]http://lookpic.com/cdn/i2/t/0417202409295002-1.jpg[/img]
[img]http://lookpic.com/cdn/i2/t/0417202409295002-2.jpg[/img]
[img]http://lookpic.com/cdn/i2/t/0417202409295002-3.jpg[/img]

General
Unique ID                                : 245946799207610156711535393990465415349 (0xB907A16A8BC778930E9F9E63F2CDE8B5)
Complete name                            : Star Wars The Bad Batch S03E13 Into the Breach 1080p DSNP WEB-DL DDP5 1 H 264-FLUX.mkv
Format                                   : Matroska
Format version                           : Version 4
File size                                : 1.06 GiB
Duration                                 : 23 min 55 s
Overall bit rate mode                    : Variable
Overall bit rate                         : 6 370 kb/s
Frame rate                               : 24.000 FPS
Writing application                      : mkvmerge v83.0 ('Circle Of Friends') 64-bit
Writing library                          : libebml v1.4.5 + libmatroska v1.7.1

Video
ID                                       : 1
Format                                   : AVC
Format/Info                              : Advanced Video Codec
Format profile                           : High@L4
Format settings                          : CABAC / 4 Ref Frames
Format settings, CABAC                   : Yes
Format settings, Reference frames        : 4 frames
Codec ID                                 : V_MPEG4/ISO/AVC
Duration                                 : 23 min 55 s
Bit rate mode                            : Variable
Bit rate                                 : 6 110 kb/s
Maximum bit rate                         : 12.7 Mb/s
Width                                    : 1 920 pixels
Height                                   : 1 080 pixels
Display aspect ratio                     : 16:9
Frame rate mode                          : Constant
Frame rate                               : 24.000 FPS
Color space                              : YUV
Chroma subsampling                       : 4:2:0
Bit depth                                : 8 bits
Scan type                                : Progressive
Bits/(Pixel*Frame)                       : 0.123
Time code of first frame                 : 00:00:00:0000000000
Stream size                              : 1.02 GiB (96%)
Language                                 : English
Default                                  : Yes
Forced                                   : No
Color range                              : Limited
Color primaries                          : BT.709
Transfer characteristics                 : BT.709
Matrix coefficients                      : BT.709

Audio
ID                                       : 2
Format                                   : E-AC-3
Format/Info                              : Enhanced AC-3
Commercial name                          : Dolby Digital Plus
Codec ID                                 : A_EAC3
Duration                                 : 23 min 55 s
Bit rate mode                            : Constant
Bit rate                                 : 256 kb/s
Channel(s)                               : 6 channels
Channel layout                           : L R C LFE Ls Rs
Sampling rate                            : 48.0 kHz
Frame rate                               : 31.250 FPS (1536 SPF)
Compression mode                         : Lossy
Stream size                              : 43.8 MiB (4%)
Language                                 : English
Service kind                             : Complete Main
Default                                  : Yes
Forced                                   : No

Text #1
ID                                       : 3
Format                                   : UTF-8
Codec ID                                 : S_TEXT/UTF8
Codec ID/Info                            : UTF-8 Plain Text
Duration                                 : 20 min 52 s
Bit rate                                 : 47 b/s
Frame rate                               : 0.163 FPS
Count of elements                        : 204
Stream size                              : 7.20 KiB (0%)
Language                                 : English
Default                                  : No
Forced                                   : No

Text #2
ID                                       : 4
Format                                   : UTF-8
Codec ID                                 : S_TEXT/UTF8
Codec ID/Info                            : UTF-8 Plain Text
Duration                                 : 22 min 17 s
Bit rate                                 : 50 b/s
Frame rate                               : 0.184 FPS
Count of elements                        : 246
Stream size                              : 8.22 KiB (0%)
Title                                    : SDH
Language                                 : English
Default                                  : No
Forced                                   : No

Text #3
ID                                       : 5
Format                                   : UTF-8
Codec ID                                 : S_TEXT/UTF8
Codec ID/Info                            : UTF-8 Plain Text
Duration                                 : 23 min 21 s
Bit rate                                 : 36 b/s
Frame rate                               : 0.133 FPS
Count of elements                        : 187
Stream size                              : 6.20 KiB (0%)
Language                                 : Czech
Default                                  : No
Forced                                   : No

Text #4
ID                                       : 6
Format                                   : UTF-8
Codec ID                                 : S_TEXT/UTF8
Codec ID/Info                            : UTF-8 Plain Text
Duration                                 : 23 min 21 s
Bit rate                                 : 42 b/s
Frame rate                               : 0.147 FPS
Count of elements                        : 206
Stream size                              : 7.28 KiB (0%)
Language                                 : Danish
Default                                  : No
Forced                                   : No

Text #5
ID                                       : 7
Format                                   : UTF-8
Codec ID                                 : S_TEXT/UTF8
Codec ID/Info                            : UTF-8 Plain Text
Duration                                 : 23 min 18 s
Bit rate                                 : 39 b/s
Frame rate                               : 0.144 FPS
Count of elements                        : 202
Stream size                              : 6.76 KiB (0%)
Language                                 : German
Default                                  : No
Forced                                   : No

Text #6
ID                                       : 8
Format                                   : UTF-8
Codec ID                                 : S_TEXT/UTF8
Codec ID/Info                            : UTF-8 Plain Text
Duration                                 : 22 min 52 s
Bit rate                                 : 72 b/s
Frame rate                               : 0.144 FPS
Count of elements                        : 198
Stream size                              : 12.2 KiB (0%)
Language                                 : Greek
Default                                  : No
Forced                                   : No

Text #7
ID                                       : 9
Format                                   : UTF-8
Codec ID                                 : S_TEXT/UTF8
Codec ID/Info                            : UTF-8 Plain Text
Duration                                 : 23 min 18 s
Bit rate                                 : 41 b/s
Frame rate                               : 0.144 FPS
Count of elements                        : 202
Stream size                              : 7.04 KiB (0%)
Title                                    : Latin American
Language                                 : Spanish (Latin America)
Default                                  : No
Forced                                   : No

Text #8
ID                                       : 10
Format                                   : UTF-8
Codec ID                                 : S_TEXT/UTF8
Codec ID/Info                            : UTF-8 Plain Text
Duration                                 : 23 min 21 s
Bit rate                                 : 39 b/s
Frame rate                               : 0.146 FPS
Count of elements                        : 205
Stream size                              : 6.68 KiB (0%)
Language                                 : Spanish (ES)
Default                                  : No
Forced                                   : No

Text #9
ID                                       : 11
Format                                   : UTF-8
Codec ID                                 : S_TEXT/UTF8
Codec ID/Info                            : UTF-8 Plain Text
Duration                                 : 23 min 18 s
Bit rate                                 : 37 b/s
Frame rate                               : 0.145 FPS
Count of elements                        : 203
Stream size                              : 6.38 KiB (0%)
Language                                 : Finnish
Default                                  : No
Forced                                   : No

Text #10
ID                                       : 12
Format                                   : UTF-8
Codec ID                                 : S_TEXT/UTF8
Codec ID/Info                            : UTF-8 Plain Text
Duration                                 : 23 min 18 s
Bit rate                                 : 41 b/s
Frame rate                               : 0.147 FPS
Count of elements                        : 206
Stream size                              : 7.12 KiB (0%)
Language                                 : French (FR)
Default                                  : No
Forced                                   : No

Text #11
ID                                       : 13
Format                                   : UTF-8
Codec ID                                 : S_TEXT/UTF8
Codec ID/Info                            : UTF-8 Plain Text
Duration                                 : 23 min 21 s
Bit rate                                 : 41 b/s
Frame rate                               : 0.145 FPS
Count of elements                        : 203
Stream size                              : 7.07 KiB (0%)
Language                                 : Hungarian
Default                                  : No
Forced                                   : No

Text #12
ID                                       : 14
Format                                   : UTF-8
Codec ID                                 : S_TEXT/UTF8
Codec ID/Info                            : UTF-8 Plain Text
Duration                                 : 23 min 18 s
Bit rate                                 : 41 b/s
Frame rate                               : 0.144 FPS
Count of elements                        : 201
Stream size                              : 7.12 KiB (0%)
Language                                 : Italian
Default                                  : No
Forced                                   : No

Text #13
ID                                       : 15
Format                                   : UTF-8
Codec ID                                 : S_TEXT/UTF8
Codec ID/Info                            : UTF-8 Plain Text
Duration                                 : 23 min 29 s
Bit rate                                 : 37 b/s
Frame rate                               : 0.148 FPS
Count of elements                        : 208
Stream size                              : 6.47 KiB (0%)
Language                                 : Japanese
Default                                  : No
Forced                                   : No

Text #14
ID                                       : 16
Format                                   : UTF-8
Codec ID                                 : S_TEXT/UTF8
Codec ID/Info                            : UTF-8 Plain Text
Duration                                 : 23 min 32 s
Bit rate                                 : 42 b/s
Frame rate                               : 0.146 FPS
Count of elements                        : 206
Stream size                              : 7.36 KiB (0%)
Language                                 : Korean
Default                                  : No
Forced                                   : No

Text #15
ID                                       : 17
Format                                   : UTF-8
Codec ID                                 : S_TEXT/UTF8
Codec ID/Info                            : UTF-8 Plain Text
Duration                                 : 23 min 18 s
Bit rate                                 : 38 b/s
Frame rate                               : 0.126 FPS
Count of elements                        : 176
Stream size                              : 6.56 KiB (0%)
Language                                 : Dutch
Default                                  : No
Forced                                   : No

Text #16
ID                                       : 18
Format                                   : UTF-8
Codec ID                                 : S_TEXT/UTF8
Codec ID/Info                            : UTF-8 Plain Text
Duration                                 : 23 min 21 s
Bit rate                                 : 40 b/s
Frame rate                               : 0.147 FPS
Count of elements                        : 206
Stream size                              : 6.94 KiB (0%)
Language                                 : Norwegian
Default                                  : No
Forced                                   : No

Text #17
ID                                       : 19
Format                                   : UTF-8
Codec ID                                 : S_TEXT/UTF8
Codec ID/Info                            : UTF-8 Plain Text
Duration                                 : 23 min 32 s
Bit rate                                 : 38 b/s
Frame rate                               : 0.144 FPS
Count of elements                        : 204
Stream size                              : 6.59 KiB (0%)
Language                                 : Polish
Default                                  : No
Forced                                   : No

Text #18
ID                                       : 20
Format                                   : UTF-8
Codec ID                                 : S_TEXT/UTF8
Codec ID/Info                            : UTF-8 Plain Text
Duration                                 : 23 min 18 s
Bit rate                                 : 42 b/s
Frame rate                               : 0.144 FPS
Count of elements                        : 201
Stream size                              : 7.33 KiB (0%)
Title                                    : Brazilian
Language                                 : Portuguese (BR)
Default                                  : No
Forced                                   : No

Text #19
ID                                       : 21
Format                                   : UTF-8
Codec ID                                 : S_TEXT/UTF8
Codec ID/Info                            : UTF-8 Plain Text
Duration                                 : 23 min 21 s
Bit rate                                 : 44 b/s
Frame rate                               : 0.146 FPS
Count of elements                        : 204
Stream size                              : 7.59 KiB (0%)
Language                                 : Portuguese (PT)
Default                                  : No
Forced                                   : No

Text #20
ID                                       : 22
Format                                   : UTF-8
Codec ID                                 : S_TEXT/UTF8
Codec ID/Info                            : UTF-8 Plain Text
Duration                                 : 23 min 32 s
Bit rate                                 : 40 b/s
Frame rate                               : 0.122 FPS
Count of elements                        : 172
Stream size                              : 6.93 KiB (0%)
Language                                 : Romanian
Default                                  : No
Forced                                   : No

Text #21
ID                                       : 23
Format                                   : UTF-8
Codec ID                                 : S_TEXT/UTF8
Codec ID/Info                            : UTF-8 Plain Text
Duration                                 : 23 min 21 s
Bit rate                                 : 38 b/s
Frame rate                               : 0.147 FPS
Count of elements                        : 206
Stream size                              : 6.65 KiB (0%)
Language                                 : Slovak
Default                                  : No
Forced                                   : No

Text #22
ID                                       : 24
Format                                   : UTF-8
Codec ID                                 : S_TEXT/UTF8
Codec ID/Info                            : UTF-8 Plain Text
Duration                                 : 23 min 21 s
Bit rate                                 : 40 b/s
Frame rate                               : 0.147 FPS
Count of elements                        : 206
Stream size                              : 6.89 KiB (0%)
Language                                 : Swedish
Default                                  : No
Forced                                   : No

Text #23
ID                                       : 25
Format                                   : UTF-8
Codec ID                                 : S_TEXT/UTF8
Codec ID/Info                            : UTF-8 Plain Text
Duration                                 : 23 min 32 s
Bit rate                                 : 34 b/s
Frame rate                               : 0.147 FPS
Count of elements                        : 207
Stream size                              : 6.02 KiB (0%)
Title                                    : Hong Kong
Language                                 : Chinese (HK)
Default                                  : No
Forced                                   : No

Text #24
ID                                       : 26
Format                                   : UTF-8
Codec ID                                 : S_TEXT/UTF8
Codec ID/Info                            : UTF-8 Plain Text
Duration                                 : 23 min 32 s
Bit rate                                 : 34 b/s
Frame rate                               : 0.147 FPS
Count of elements                        : 207
Stream size                              : 5.95 KiB (0%)
Title                                    : Traditional
Language                                 : Chinese (Traditional)
Default                                  : No
Forced                                   : No

Menu
00:00:28.167                             : en:Intro
00:00:37.167                             : en:Scene 1
00:11:18.083                             : en:Scene 2
00:19:01.833                             : en:Scene 3
00:23:10.208                             : en:Credits



Download
File Container: MKV
Video/Audio Codec: H264 (HIGH) EAC3
Video Resolution: 1920x1080

1 Response to "[RR/NF/CU] Star Wars The Bad Batch S03E13 Into the Breach 1080p DSNP WEB-DL DDP5 1 H 264-FLUX (1.1GB)"
04/17/24
10:54:52
ReadyPlayerOne

Thank You

Please Login to post a comment.
If you don't have any account, please Register.
  • Subscribe my Feeds
  • Facebook
Encoding Queue:  x264  x265

Latest Episodes

Popular Movies and TV Shows

  • Young Sheldon
  • Tracker
  • The Name of the Rose
  • TMZ Presents: The Downfall of Diddy
  • The Summit
  • Mad Max: Fury Road
  • Devil in the Flesh
  • The Green Veil
  • Bob's Burgers
  • Bodkin
  • Queen of the Gypsies
  • Golden Kamuy
  • The Simpsons
  • The Equalizer
  • CSI: Vegas
  • Baby Driver
  • Challengers
  • Tales of Ordinary Madness
  • The Sympathizer
  • Krapopolis
  • The Great North
  • Triple Frontier
  • A Walk Among the Tombstones
  • Dawn of the Planet of the Apes
  • Beacon 23

Recent Comments

  • Bud: Is the search engine down for everyone, or just me? It just says 'You're forbidden!' whenever I lo...
  • 23d1:

    not episode 4 it is episode 3

  • 23d1:

    not episode 4 it is episode 3

  • 23d1:

    not episode 4 it is episode 3

  • 23d1:

    not episode 4 it is episode 3

  • aaroz88:

    Trimas!!

  • mptoo: I don't often ask this, infact this would be the first time, but I don't suppose there is any chance...
  • Cinque_Persson:

    btw:
    quote /quote
    is broken

  • gabrielsyme:

    Sorry but where is the clicknupload link?

  • mike1204:

    Is this episode doomed??? The RMX avi version is only 12 minutes long!!!

  • waanaabe:

    Could PUSHING DAISES kindly be upoaded to CU? THANKS!

Archives