Sign Up   |   Sign In  
RushExhumaThe Bank ShotDemon Slayer: Kimetsu no YaibaThe ChiSecret CityDawn of the Planet of the ApesRise of the Planet of the ApesPlanet of the ApesMasterChef AustraliaSecrets and LiesAbove JusticeBeacon 23Interview with the VampireSaturday Night LivePhil Tippett: Mad Dreams and MonstersChallengersEverything PuppiesYoung SheldonStar Trek: DiscoveryS.W.A.T.Godzilla x Kong: The New EmpireFletchFletch LivesDoctor Who

Announcements

04/12

2024

No

Comments

Station 19 S07E05 My Way 720p AMZN WEB-DL DDP5 1 H 264-FLUX
[RR/NF/CU]
Size: 1.7GB mkv H264 (HIGH) / EAC3  HD  1280x720

Station 19
File Information
[img]http://lookpic.com/cdn/i2/t/0412202407004865-1.jpg[/img]
[img]http://lookpic.com/cdn/i2/t/0412202407004865-2.jpg[/img]
[img]http://lookpic.com/cdn/i2/t/0412202407004865-3.jpg[/img]

General
Unique ID                                : 194397663099930604542974345230058011657 (0x923FA0C7C615B3C6860152270F6C3C09)
Complete name                            : Station 19 S07E05 My Way 720p AMZN WEB-DL DDP5 1 H 264-FLUX.mkv
Format                                   : Matroska
Format version                           : Version 4
File size                                : 1.66 GiB
Duration                                 : 42 min 7 s
Overall bit rate                         : 5 656 kb/s
Frame rate                               : 23.976 FPS
Writing application                      : mkvmerge v83.0 ('Circle Of Friends') 64-bit
Writing library                          : libebml v1.4.5 + libmatroska v1.7.1

Video
ID                                       : 1
Format                                   : AVC
Format/Info                              : Advanced Video Codec
Format profile                           : High@L3.1
Format settings                          : CABAC / 4 Ref Frames
Format settings, CABAC                   : Yes
Format settings, Reference frames        : 4 frames
Codec ID                                 : V_MPEG4/ISO/AVC
Duration                                 : 42 min 7 s
Bit rate mode                            : Constant
Bit rate                                 : 5 014 kb/s
Nominal bit rate                         : 6 000 kb/s
Width                                    : 1 280 pixels
Height                                   : 720 pixels
Display aspect ratio                     : 16:9
Frame rate mode                          : Constant
Frame rate                               : 23.976 (24000/1001) FPS
Color space                              : YUV
Chroma subsampling                       : 4:2:0
Bit depth                                : 8 bits
Scan type                                : Progressive
Bits/(Pixel*Frame)                       : 0.227
Stream size                              : 1.48 GiB (89%)
Language                                 : English
Default                                  : Yes
Forced                                   : No
Color range                              : Limited
Color primaries                          : BT.709
Transfer characteristics                 : BT.709
Matrix coefficients                      : BT.709

Audio
ID                                       : 2
Format                                   : E-AC-3
Format/Info                              : Enhanced AC-3
Commercial name                          : Dolby Digital Plus
Codec ID                                 : A_EAC3
Duration                                 : 42 min 7 s
Bit rate mode                            : Constant
Bit rate                                 : 640 kb/s
Channel(s)                               : 6 channels
Channel layout                           : L R C LFE Ls Rs
Sampling rate                            : 48.0 kHz
Frame rate                               : 31.250 FPS (1536 SPF)
Compression mode                         : Lossy
Stream size                              : 193 MiB (11%)
Language                                 : English
Service kind                             : Complete Main
Default                                  : Yes
Forced                                   : No

Text #1
ID                                       : 3
Format                                   : UTF-8
Codec ID                                 : S_TEXT/UTF8
Codec ID/Info                            : UTF-8 Plain Text
Duration                                 : 41 min 24 s
Bit rate                                 : 85 b/s
Frame rate                               : 0.320 FPS
Count of elements                        : 794
Stream size                              : 25.8 KiB (0%)
Language                                 : English (US)
Default                                  : No
Forced                                   : No

Text #2
ID                                       : 4
Format                                   : UTF-8
Codec ID                                 : S_TEXT/UTF8
Codec ID/Info                            : UTF-8 Plain Text
Duration                                 : 41 min 56 s
Bit rate                                 : 91 b/s
Frame rate                               : 0.362 FPS
Count of elements                        : 912
Stream size                              : 28.0 KiB (0%)
Title                                    : SDH
Language                                 : English (US)
Default                                  : No
Forced                                   : No

Menu
00:00:00.000                             : en:Scene 1
00:42:02.000                             : en:Outro



Download
File Container: MKV
Video/Audio Codec: H264 (HIGH) EAC3
Video Resolution: 1280x720
Please Login to post a comment.
If you don't have any account, please Register.
  • Subscribe my Feeds
  • Facebook
Encoding Queue:  x264  x265

Latest Episodes

Popular Movies and TV Shows

  • Rush
  • Exhuma
  • The Bank Shot
  • Demon Slayer: Kimetsu no Yaiba
  • The Chi
  • Secret City
  • Dawn of the Planet of the Apes
  • Rise of the Planet of the Apes
  • Planet of the Apes
  • MasterChef Australia
  • Secrets and Lies
  • Above Justice
  • Beacon 23
  • Interview with the Vampire
  • Saturday Night Live
  • Phil Tippett: Mad Dreams and Monsters
  • Challengers
  • Everything Puppies
  • Young Sheldon
  • Star Trek: Discovery
  • S.W.A.T.
  • Godzilla x Kong: The New Empire
  • Fletch
  • Fletch Lives
  • Doctor Who

Recent Comments

  • 23d1:

    not episode 4 it is episode 3

  • 23d1:

    not episode 4 it is episode 3

  • 23d1:

    not episode 4 it is episode 3

  • 23d1:

    not episode 4 it is episode 3

  • aaroz88:

    Trimas!!

  • mptoo: I don't often ask this, infact this would be the first time, but I don't suppose there is any chance...
  • Cinque_Persson:

    btw:
    quote /quote
    is broken

  • gabrielsyme:

    Sorry but where is the clicknupload link?

  • mike1204:

    Is this episode doomed??? The RMX avi version is only 12 minutes long!!!

  • waanaabe:

    Could PUSHING DAISES kindly be upoaded to CU? THANKS!

  • mentalityx:

    Thx bloke.

Archives