Sign Up   |   Sign In  
The Bold and the BeautifulWalkerColdplay Live in São PauloInside No. 9Pulp FictionDeath GamesThe Artifice GirlOriginThe PrimevalsFiennes Return to the WildThe Young and the RestlessThe ChosenThe AcolyteDark MatterPresumed InnocentMysteries of the Terracotta WarriorsNinja TerminatorHow Music Got FreeWWE NXTThe Big Door PrizeTryingLost SoulzThe Beast in the JunglePet SemataryThe Daily Show

Announcements

05/24

2024

1

Comments

Station 19 S07E09 How Am I Supposed To Live Without You 1080p AMZN WEB-DL DDP5 1 H 264-FLUX
[RR/NF]
Size: 2.8GB mkv H264 (HIGH) / EAC3  HD  1920x1080

Station 19
File Information
[img]http://lookpic.com/cdn/i2/t/0524202409460345-1.jpg[/img]
[img]http://lookpic.com/cdn/i2/t/0524202409460345-2.jpg[/img]
[img]http://lookpic.com/cdn/i2/t/0524202409460345-3.jpg[/img]

General
Unique ID                                : 75150144282095952707895394997971822022 (0x3889642D88A88A552DA7F3932EF1A5C6)
Complete name                            : Station 19 S07E09 How Am I Supposed To Live Without You 1080p AMZN WEB-DL DDP5 1 H 264-FLUX.mkv
Format                                   : Matroska
Format version                           : Version 4
File size                                : 2.78 GiB
Duration                                 : 42 min 3 s
Overall bit rate                         : 9 447 kb/s
Frame rate                               : 23.976 FPS
Writing application                      : mkvmerge v83.0 ('Circle Of Friends') 64-bit
Writing library                          : libebml v1.4.5 + libmatroska v1.7.1

Video
ID                                       : 1
Format                                   : AVC
Format/Info                              : Advanced Video Codec
Format profile                           : High@L4
Format settings                          : CABAC / 4 Ref Frames
Format settings, CABAC                   : Yes
Format settings, Reference frames        : 4 frames
Codec ID                                 : V_MPEG4/ISO/AVC
Duration                                 : 42 min 3 s
Bit rate mode                            : Constant
Bit rate                                 : 8 804 kb/s
Nominal bit rate                         : 10 000 kb/s
Width                                    : 1 920 pixels
Height                                   : 1 080 pixels
Display aspect ratio                     : 16:9
Frame rate mode                          : Constant
Frame rate                               : 23.976 (24000/1001) FPS
Color space                              : YUV
Chroma subsampling                       : 4:2:0
Bit depth                                : 8 bits
Scan type                                : Progressive
Bits/(Pixel*Frame)                       : 0.177
Stream size                              : 2.59 GiB (93%)
Language                                 : English (US)
Default                                  : Yes
Forced                                   : No
Color range                              : Limited
Color primaries                          : BT.709
Transfer characteristics                 : BT.709
Matrix coefficients                      : BT.709

Audio
ID                                       : 2
Format                                   : E-AC-3
Format/Info                              : Enhanced AC-3
Commercial name                          : Dolby Digital Plus
Codec ID                                 : A_EAC3
Duration                                 : 42 min 3 s
Bit rate mode                            : Constant
Bit rate                                 : 640 kb/s
Channel(s)                               : 6 channels
Channel layout                           : L R C LFE Ls Rs
Sampling rate                            : 48.0 kHz
Frame rate                               : 31.250 FPS (1536 SPF)
Compression mode                         : Lossy
Stream size                              : 193 MiB (7%)
Language                                 : English
Service kind                             : Complete Main
Default                                  : Yes
Forced                                   : No

Text #1
ID                                       : 3
Format                                   : UTF-8
Codec ID                                 : S_TEXT/UTF8
Codec ID/Info                            : UTF-8 Plain Text
Duration                                 : 41 min 28 s
Bit rate                                 : 95 b/s
Frame rate                               : 0.370 FPS
Count of elements                        : 922
Stream size                              : 29.2 KiB (0%)
Language                                 : English (US)
Default                                  : No
Forced                                   : No

Text #2
ID                                       : 4
Format                                   : UTF-8
Codec ID                                 : S_TEXT/UTF8
Codec ID/Info                            : UTF-8 Plain Text
Duration                                 : 41 min 53 s
Bit rate                                 : 99 b/s
Frame rate                               : 0.398 FPS
Count of elements                        : 1000
Stream size                              : 30.6 KiB (0%)
Title                                    : SDH
Language                                 : English (US)
Default                                  : No
Forced                                   : No

Menu
00:00:00.000                             : en:Scene 1
00:41:18.000                             : en:End Credits



Download
File Container: MKV
Video/Audio Codec: H264 (HIGH) EAC3
Video Resolution: 1920x1080

1 Response to "[RR/NF] Station 19 S07E09 How Am I Supposed To Live Without You 1080p AMZN WEB-DL DDP5 1 H 264-FLUX (2.8GB)"
05/24/24
12:30:16
ReadyPlayerOne

Thank You

Please Login to post a comment.
If you don't have any account, please Register.
  • Subscribe my Feeds
  • Facebook
Encoding Queue:  x264  x265

Latest Episodes

Popular Movies and TV Shows

  • The Bold and the Beautiful
  • Walker
  • Coldplay Live in São Paulo
  • Inside No. 9
  • Pulp Fiction
  • Death Games
  • The Artifice Girl
  • Origin
  • The Primevals
  • Fiennes Return to the Wild
  • The Young and the Restless
  • The Chosen
  • The Acolyte
  • Dark Matter
  • Presumed Innocent
  • Mysteries of the Terracotta Warriors
  • Ninja Terminator
  • How Music Got Free
  • WWE NXT
  • The Big Door Prize
  • Trying
  • Lost Soulz
  • The Beast in the Jungle
  • Pet Sematary
  • The Daily Show

Recent Comments

  • KissclTum: [url=https://kisstom.ru/prices]имплант с коронкой цена кисс [/url] Tegs: и...
  • Diggety247:

    BrokenHanded, Try using a DL manager.

  • BrokenHanded: clicknupload does not seem to work for past few days. keep getting an error saying the site is sendi...
  • Bud: Helps if you actually add these to the "Late Night with Seth Meyers" page too...
  • rambaldi70:

    Hy! Right now, my download speed : 1 Mb/s
    this is ok?
    Tx answer

  • Cinque_Persson: At 183 MB this had to be something completely different. In fact it's just the main actors commentin...
  • meyat74:

    my bad, should be full season

  • Oscar2:

    Halo "is" a good show

  • MeH:

    "one of the most impressive scenes"

  • rappet:

    Unfortunately, episode 2 not playing and episode 3 half missing (only 37 minutes long).

  • Anovani:

    Nice 1

  • shark:

    Will there be a sequel?

  • sjors:

    This release in in Russian with Russian subs. No English.

  • RapidRabbit98: I'll ask again Forged in Fire Series 11 episode 1 - anyone have it?

Archives