Sign Up   |   Sign In  

Announcements

Want to support us?
Buy a RapidRAR account from our resellers:
Buy or renew a NitroFlare account via THIS LINK

04/18

2017

1

Comments

Taken S01E08 1080p WEB-DL DD5 1 H264-RARBG
[RR/NF/UR]
Size: 1.7GB mkv H264 (HIGH) / AC3  HD  1920x1080

Taken
Click on the image to see full size
[RR/NF/UR] Taken S01E08 1080p WEB-DL DD5 1 H264-RARBG (1.7GB) - Snapshot 1
File Information
[URL=http://imagecurl.com/viewer.php?file=47850960532154372137.png][IMG]http://imagecurl.com/images/47850960532154372137_thumb.png[/IMG][/URL]
[URL=http://imagecurl.com/viewer.php?file=51966702396383751205.png][IMG]http://imagecurl.com/images/51966702396383751205_thumb.png[/IMG][/URL]
[URL=http://imagecurl.com/viewer.php?file=25363687298945739954.png][IMG]http://imagecurl.com/images/25363687298945739954_thumb.png[/IMG][/URL]
[URL=http://imagecurl.com/viewer.php?file=80177064823116784344.png][IMG]http://imagecurl.com/images/80177064823116784344_thumb.png[/IMG][/URL]
[URL=http://imagecurl.com/viewer.php?file=71954065189162826726.png][IMG]http://imagecurl.com/images/71954065189162826726_thumb.png[/IMG][/URL]
[URL=http://imagecurl.com/viewer.php?file=57485723170260622870.png][IMG]http://imagecurl.com/images/57485723170260622870_thumb.png[/IMG][/URL]



[mediainfo]
Video
ID                                       : 1
Format                                   : AVC
Format/Info                              : Advanced Video Codec
Format profile                           : [email protected]
Format settings, CABAC                   : Yes
Format settings, ReFrames                : 4 frames
Codec ID                                 : V_MPEG4/ISO/AVC
Duration                                 : 42mn 55s
Bit rate                                 : 5 077 Kbps
Width                                    : 1 920 pixels
Height                                   : 1 080 pixels
Display aspect ratio                     : 16:9
Frame rate mode                          : Constant
Frame rate                               : 23.976 (24000/1001) fps
Color space                              : YUV
Chroma subsampling                       : 4:2:0
Bit depth                                : 8 bits
Scan type                                : Progressive
Bits/(Pixel*Frame)                       : 0.102
Stream size                              : 1.52 GiB (91%)
Title                                    : Taken.S01E08.1080p.WEB-DL.DD5.1.H264-RARBG
Language                                 : English
Default                                  : Yes
Forced                                   : No
Color range                              : Limited
Color primaries                          : BT.709
Transfer characteristics                 : BT.709
Matrix coefficients                      : BT.709

Audio
ID                                       : 2
Format                                   : AC-3
Format/Info                              : Audio Coding 3
Mode extension                           : CM (complete main)
Format settings, Endianness              : Big
Codec ID                                 : A_AC3
Duration                                 : 42mn 55s
Bit rate mode                            : Constant
Bit rate                                 : 384 Kbps
Channel(s)                               : 6 channels
Channel positions                        : Front: L C R, Side: L R, LFE
Sampling rate                            : 48.0 KHz
Frame rate                               : 31.250 fps (1536 spf)
Compression mode                         : Lossy
Stream size                              : 118 MiB (7%)
Title                                    : Taken.S01E08.1080p.WEB-DL.DD5.1.H264-RARBG
Language                                 : English
Default                                  : Yes
Forced                                   : No

Text #1
ID                                       : 3
Format                                   : UTF-8
Codec ID                                 : S_TEXT/UTF8
Codec ID/Info                            : UTF-8 Plain Text
Language                                 : English
Default                                  : Yes
Forced                                   : No

Text #2
ID                                       : 4
Format                                   : UTF-8
Codec ID                                 : S_TEXT/UTF8
Codec ID/Info                            : UTF-8 Plain Text
Title                                    : SDH
Language                                 : English
Default                                  : No
Forced                                   : No



[/mediainfo]
Download
File Container: MKV
Video/Audio Codec: H264 (HIGH) AC3
Video Resolution: 1920x1080
 
 
 

Show us some love

1 Response to "[RR/NF/UR] Taken S01E08 1080p WEB-DL DD5 1 H264-RARBG (1.7GB)"
04/18/17
16:10:14
Admin

RapidRAR re-uploaded with new RAR file(s) (users who couldn't download some parts need to download all parts again).

Leave a Comment

  • (never displayed)
  •  
        Members don't see captchas. Sign Up / Sign In
  • Notify me via email when someone responds.
  • Subscribe my Feeds
  • Facebook

Latest Episodes

Popular Movies and TV Shows

  • American Gods
  • Genius
  • The Handmaid's Tale
  • Pork Pie
  • John Wick: Chapter 2
  • Art Bastard
  • Grantchester
  • The White Princess
  • The Durrells
  • Caligula's Spawn
  • Naked Ambition: An R Rated Look at an X Rated Industry
  • The King's Case Note
  • Doctor Who
  • Fallo!
  • 12 Monkeys
  • Are All Men Pedophiles?
  • Rammstein: Paris
  • Frontier
  • The Northlander
  • Ma vie de Courgette
  • Bloodline
  • Unforgiven
  • Neon Joe, Werewolf Hunter
  • Arrow
  • A Cure for Wellness

Recent Comments

  • ramirez_:

    can you re up links please

  • MahBoff:

    Could this please be uploaded to RapidRar?

  • Vamps: Hey Nice upload, I only ever got the first five in HDTV, the last five were crappier tv caps. thnx
  • JT:

    Can you re-up with clicknupload? uploadrocket already down.

  • errrgh: Complete name : New folder\the.kings.case.note.2017.480p.x264.rmteam.mkv Format ...
  • errrgh: phooey. the media detail IN this movie states English version video and English audio - BUT - it is...
  • uncabrian:

    All these links are dead, please reload on Openload or Clicknupload if possible.

  • x265Addict:

    upload 480p version.

  • x265Addict:

    @admin x265 please, it has no black bars.

  • Lux:

    Clickupload link is broken, could you fix it, please?
    Thank you very much!