Sign Up   |   Sign In  

Announcements

Want to support us?
Buy a RapidRAR account from our resellers:
Buy or renew a NitroFlare account via THIS LINK
We'll stop uploading files to Uploaded.net in December 2017.

04/18

2017

1

Comments

Taken S01E08 720p WEB-DL DD5 1 H264-RARBG
[RR/NF/UL/UR]
Size: 1.3GB mkv H264 (HIGH) / AC3  HD  1280x720

Taken
Click on the image to see full size
[RR/NF/UL/UR] Taken S01E08 720p WEB-DL DD5 1 H264-RARBG (1.3GB) - Snapshot 1
File Information
[URL=http://imagecurl.com/viewer.php?file=71425995496437529409.png][IMG]http://imagecurl.com/images/71425995496437529409_thumb.png[/IMG][/URL]
[URL=http://imagecurl.com/viewer.php?file=99417650354291772195.png][IMG]http://imagecurl.com/images/99417650354291772195_thumb.png[/IMG][/URL]
[URL=http://imagecurl.com/viewer.php?file=97689292790109375815.png][IMG]http://imagecurl.com/images/97689292790109375815_thumb.png[/IMG][/URL]
[URL=http://imagecurl.com/viewer.php?file=61715691780247997361.png][IMG]http://imagecurl.com/images/61715691780247997361_thumb.png[/IMG][/URL]
[URL=http://imagecurl.com/viewer.php?file=10792146252015032648.png][IMG]http://imagecurl.com/images/10792146252015032648_thumb.png[/IMG][/URL]
[URL=http://imagecurl.com/viewer.php?file=05271210635657320717.png][IMG]http://imagecurl.com/images/05271210635657320717_thumb.png[/IMG][/URL]



[mediainfo]
Video
ID                                       : 1
Format                                   : AVC
Format/Info                              : Advanced Video Codec
Format profile                           : [email protected]
Format settings, CABAC                   : No
Format settings, ReFrames                : 2 frames
Codec ID                                 : V_MPEG4/ISO/AVC
Duration                                 : 42mn 55s
Bit rate                                 : 3 940 Kbps
Width                                    : 1 280 pixels
Height                                   : 720 pixels
Display aspect ratio                     : 16:9
Frame rate mode                          : Constant
Frame rate                               : 23.976 (24000/1001) fps
Color space                              : YUV
Chroma subsampling                       : 4:2:0
Bit depth                                : 8 bits
Scan type                                : Progressive
Bits/(Pixel*Frame)                       : 0.178
Stream size                              : 1.18 GiB (89%)
Title                                    : Taken.S01E08.720p.WEB-DL.DD5.1.H264-RARBG
Language                                 : English
Default                                  : Yes
Forced                                   : No
Color range                              : Limited
Color primaries                          : BT.709
Transfer characteristics                 : BT.709
Matrix coefficients                      : BT.709

Audio
ID                                       : 2
Format                                   : AC-3
Format/Info                              : Audio Coding 3
Mode extension                           : CM (complete main)
Format settings, Endianness              : Big
Codec ID                                 : A_AC3
Duration                                 : 42mn 55s
Bit rate mode                            : Constant
Bit rate                                 : 384 Kbps
Channel(s)                               : 6 channels
Channel positions                        : Front: L C R, Side: L R, LFE
Sampling rate                            : 48.0 KHz
Frame rate                               : 31.250 fps (1536 spf)
Compression mode                         : Lossy
Stream size                              : 118 MiB (9%)
Title                                    : Taken.S01E08.720p.WEB-DL.DD5.1.H264-RARBG
Language                                 : English
Default                                  : Yes
Forced                                   : No

Text #1
ID                                       : 3
Format                                   : UTF-8
Codec ID                                 : S_TEXT/UTF8
Codec ID/Info                            : UTF-8 Plain Text
Language                                 : English
Default                                  : Yes
Forced                                   : No

Text #2
ID                                       : 4
Format                                   : UTF-8
Codec ID                                 : S_TEXT/UTF8
Codec ID/Info                            : UTF-8 Plain Text
Title                                    : SDH
Language                                 : English
Default                                  : No
Forced                                   : No



[/mediainfo]
Download
File Container: MKV
Video/Audio Codec: H264 (HIGH) AC3
Video Resolution: 1280x720
 
 
 
 

Show us some love

1 Response to "[RR/NF/UL/UR] Taken S01E08 720p WEB-DL DD5 1 H264-RARBG (1.3GB)"
04/18/17
16:10:15
Admin

RapidRAR re-uploaded with new RAR file(s) (users who couldn't download some parts need to download all parts again).

Leave a Comment

  • (never displayed)
  •  
        Members don't see captchas. Sign Up / Sign In
  • Notify me via email when someone responds.
  • Subscribe my Feeds
  • Facebook

Latest Episodes

Popular Movies and TV Shows

  • The Flash
  • Legends of Tomorrow
  • Lethal Weapon
  • American Assassin
  • American Made
  • Hangman
  • Brooklyn Nine-Nine
  • Chance
  • NCIS: Naval Criminal Investigative Service
  • Jabberwocky
  • Sexually Bugged!
  • Home Again
  • Strike Back
  • Runaways
  • Travelers
  • Geostorm
  • Dolores Claiborne
  • Crooked House
  • The Gifted
  • Lucifer
  • Supergirl
  • Topâzu
  • Perdita Durango
  • Logan Lucky
  • The Walking Dead

Recent Comments