Sign Up   |   Sign In  

Announcements

Want to support us?
Buy a RapidRAR account from our resellers:
Buy or renew a NitroFlare account via THIS LINK
We'll stop uploading files to Uploaded.net in December 2017.

04/18

2017

4

Comments

Taken S01E08 WEBRip x264-RARBG
[RR/NF/UL/OL/OLw/UR/CU]
Size: 376MB mp4 H264 (HIGH) (AVC1) / AAC (LC) (MP4A) 720x400

Taken
Click on the image to see full size
[RR/NF/UL/OL/OLw/UR/CU] Taken S01E08 WEBRip x264-RARBG (376MB) - Snapshot 1[RR/NF/UL/OL/OLw/UR/CU] Taken S01E08 WEBRip x264-RARBG (376MB) - Snapshot 2
File Information
[URL]http://www.imdb.com/title/tt5052460/[/URL]
[screenshots]
[URL=http://imagecurl.com/viewer.php?file=18255947302063770282.png][IMG]http://imagecurl.com/images/18255947302063770282_thumb.png[/IMG][/URL]
[URL=http://imagecurl.com/viewer.php?file=76330309266239927533.png][IMG]http://imagecurl.com/images/76330309266239927533_thumb.png[/IMG][/URL]
[URL=http://imagecurl.com/viewer.php?file=80656524089606387824.png][IMG]http://imagecurl.com/images/80656524089606387824_thumb.png[/IMG][/URL]
[URL=http://imagecurl.com/viewer.php?file=18202946067168619924.png][IMG]http://imagecurl.com/images/18202946067168619924_thumb.png[/IMG][/URL]

[/screenshots]


[mediainfo]
Video
ID                                       : 1
Format                                   : AVC
Format/Info                              : Advanced Video Codec
Format profile                           : [email protected]
Format settings, CABAC                   : Yes
Format settings, ReFrames                : 5 frames
Codec ID                                 : avc1
Codec ID/Info                            : Advanced Video Coding
Duration                                 : 42mn 54s
Bit rate                                 : 1 100 Kbps
Width                                    : 720 pixels
Height                                   : 400 pixels
Display aspect ratio                     : 16:9
Frame rate mode                          : Constant
Frame rate                               : 23.976 (24000/1001) fps
Color space                              : YUV
Chroma subsampling                       : 4:2:0
Bit depth                                : 8 bits
Scan type                                : Progressive
Bits/(Pixel*Frame)                       : 0.159
Stream size                              : 336 MiB (89%)
Title                                    : RARBG.COM - Taken.S01E08.WEBRip.x264-RARBG
Writing library                          : x264 core 148 r2597M e86f3a1
 Encoding settings                        : cabac=1 / ref=5 / deblock=1:-1:-1 / analyse=0x3:0x113 / me=umh / subme=9 / psy=1 / psy_rd=1.00:0.15 / mixed_ref=1 / me_range=16 / chroma_me=1 / trellis=2 / 8x8dct=1 / cqm=0 / deadz / fast pskip=1 / chroma_qp_offset=-3 / threads=12 / lookahead_threads=1 / sliced_threads=0 / nr=0 / decimate=1 / interlaced=0 / bluray_compat=0 / c / bframes=3 / b_pyramid=2 / b_adapt=2 / b_bias=0 / direct=3 / weightb=1 / open_gop=0 / weightp=2 / keyint=250 / keyint_min=23 / scenecut=40 / intra_refresh=0 / rc_lookahead=50 / rc=abr / mbtree=1 / bitrate=1100 / ratetol=1.0 / qcomp=0.60 / qpmin=0 / qpmax=69 / qpstep=4 / ip_ratio=1.40 / aq=1:1.00
Encoded date                             : UTC 2017-04-18 16:22:34
Tagged date                              : UTC 2017-04-18 16:22:34

Audio
ID                                       : 2
Format                                   : AAC
Format/Info                              : Advanced Audio Codec
Format profile                           : LC
Codec ID                                 : 40
Duration                                 : 42mn 55s
Bit rate mode                            : Constant
Bit rate                                 : 128 Kbps
Channel(s)                               : 2 channels
Channel positions                        : Front: L R
Sampling rate                            : 48.0 KHz
Frame rate                               : 46.875 fps (1024 spf)
Compression mode                         : Lossy
Stream size                              : 39.3 MiB (10%)
Title                                    : RARBG.COM - Taken.S01E08.WEBRip.x264-RARBG
Language                                 : English
Default                                  : Yes
Alternate group                          : 1
Encoded date                             : UTC 2017-04-18 16:22:34
Tagged date                              : UTC 2017-04-18 16:22:34



[/mediainfo]
Download
File Container: MP4
Video/Audio Codec: H264 (HIGH) (AVC1) AAC (LC) (MP4A)
Video Resolution: 720x400
 
 
 
 
 
 
Watch Online [MP4]

Show us some love

4 Responses to "[RR/NF/UL/OL/OLw/UR/CU] Taken S01E08 WEBRip x264-RARBG (376MB)"
04/20/17
12:50:50
Admin

RapidRAR re-uploaded with new RAR file(s) (users who couldn't download some parts need to download all parts again).

04/22/17
01:20:50
Admin

RapidRAR re-uploaded with new RAR file(s) (users who couldn't download some parts need to download all parts again).

04/24/17
12:00:19
Admin

RapidRAR re-uploaded with new RAR file(s) (users who couldn't download some parts need to download all parts again).

05/16/17
20:40:40
Admin

RapidRAR re-uploaded with new RAR file(s) (users who couldn't download some parts need to download all parts again).

Leave a Comment

  • (never displayed)
  •  
        Members don't see captchas. Sign Up / Sign In
  • Notify me via email when someone responds.
  • Subscribe my Feeds
  • Facebook

Latest Episodes

Popular Movies and TV Shows

  • The Punisher
  • The Exorcist
  • Hawaii Five-0
  • Bad Genius
  • Super Dark Times
  • Once Upon a Time
  • Z Nation
  • MacGyver
  • War for the Planet of the Apes
  • Logan Lucky
  • Mudbound
  • Arrow
  • The Big Bang Theory
  • The Orville
  • 1 Buck
  • Sweet Virginia
  • Kingpin
  • Gotham
  • Supernatural
  • Young Sheldon
  • Almost Friends
  • A Christmas Prince
  • The Eyes
  • Mr. Robot
  • The Blacklist

Recent Comments

  • pepef:

    Nitroflare offline

  • MTV:

    thanks for the Post

  • thaone:

    Thank You

  • TommyGun:

    Thanks!

  • TommyGun:

    Thanks!

  • thaone:

    Thank You

  • Beau:

    Any chance of a marvels the punisher s01e10 480p x264 rmteam version?

  • Beau:

    Any chance of a marvels the punisher s01e10 480p x264 rmteam version?

  • Edward Snowden: @UberwolfIf you payed for access and you don't block anything, then the evil ad networks are going t...
  • theone:

    Thank You