Sign Up   |   Sign In  

Announcements

Want to support us?
Buy a RapidRAR account from our resellers:
Buy or renew a NitroFlare account via THIS LINK

04/19

2017

No

Comments

The Americans S05E07 1080p WEB-DL DD5 1 H264-RARBG
[RR/NF/UL/UR]
Size: 1.7GB mkv H264 (HIGH) / AC3  HD  1920x1080

The Americans
Click on the image to see full size
[RR/NF/UL/UR] The Americans S05E07 1080p WEB-DL DD5 1 H264-RARBG (1.7GB) - Snapshot 1
File Information
[URL=http://imagecurl.com/viewer.php?file=36288740415043010559.png][IMG]http://imagecurl.com/images/36288740415043010559_thumb.png[/IMG][/URL]
[URL=http://imagecurl.com/viewer.php?file=44883795888321809131.png][IMG]http://imagecurl.com/images/44883795888321809131_thumb.png[/IMG][/URL]
[URL=http://imagecurl.com/viewer.php?file=66998561217221759028.png][IMG]http://imagecurl.com/images/66998561217221759028_thumb.png[/IMG][/URL]
[URL=http://imagecurl.com/viewer.php?file=30287802383788004214.png][IMG]http://imagecurl.com/images/30287802383788004214_thumb.png[/IMG][/URL]
[URL=http://imagecurl.com/viewer.php?file=30412766721309321965.png][IMG]http://imagecurl.com/images/30412766721309321965_thumb.png[/IMG][/URL]
[URL=http://imagecurl.com/viewer.php?file=88028789409325298596.png][IMG]http://imagecurl.com/images/88028789409325298596_thumb.png[/IMG][/URL]



[mediainfo]
Video
ID                                       : 1
Format                                   : AVC
Format/Info                              : Advanced Video Codec
Format profile                           : [email protected]
Format settings, CABAC                   : Yes
Format settings, ReFrames                : 4 frames
Codec ID                                 : V_MPEG4/ISO/AVC
Duration                                 : 44mn 22s
Bit rate                                 : 4 998 Kbps
Width                                    : 1 920 pixels
Height                                   : 1 080 pixels
Display aspect ratio                     : 16:9
Frame rate mode                          : Constant
Frame rate                               : 23.976 (24000/1001) fps
Color space                              : YUV
Chroma subsampling                       : 4:2:0
Bit depth                                : 8 bits
Scan type                                : Progressive
Bits/(Pixel*Frame)                       : 0.101
Stream size                              : 1.55 GiB (91%)
Title                                    : The.Americans.S05E07.1080p.WEB-DL.DD5.1.H264-RARBG
Language                                 : English
Default                                  : Yes
Forced                                   : No
Color range                              : Limited
Color primaries                          : BT.709
Transfer characteristics                 : BT.709
Matrix coefficients                      : BT.709

Audio
ID                                       : 2
Format                                   : AC-3
Format/Info                              : Audio Coding 3
Mode extension                           : CM (complete main)
Format settings, Endianness              : Big
Codec ID                                 : A_AC3
Duration                                 : 44mn 22s
Bit rate mode                            : Constant
Bit rate                                 : 384 Kbps
Channel(s)                               : 6 channels
Channel positions                        : Front: L C R, Side: L R, LFE
Sampling rate                            : 48.0 KHz
Frame rate                               : 31.250 fps (1536 spf)
Compression mode                         : Lossy
Stream size                              : 122 MiB (7%)
Title                                    : The.Americans.S05E07.1080p.WEB-DL.DD5.1.H264-RARBG
Language                                 : English
Default                                  : Yes
Forced                                   : No

Text #1
ID                                       : 3
Format                                   : UTF-8
Codec ID                                 : S_TEXT/UTF8
Codec ID/Info                            : UTF-8 Plain Text
Language                                 : English
Default                                  : Yes
Forced                                   : No

Text #2
ID                                       : 4
Format                                   : UTF-8
Codec ID                                 : S_TEXT/UTF8
Codec ID/Info                            : UTF-8 Plain Text
Title                                    : SDH
Language                                 : English
Default                                  : No
Forced                                   : No



[/mediainfo]
Download
File Container: MKV
Video/Audio Codec: H264 (HIGH) AC3
Video Resolution: 1920x1080
 
 
 
 

Show us some love

Leave a Comment

  • (never displayed)
  •  
        Members don't see captchas. Sign Up / Sign In
  • Notify me via email when someone responds.
  • Subscribe my Feeds
  • Facebook

Latest Episodes

Popular Movies and TV Shows

  • The Son
  • Doctor Who
  • Guardians of the Galaxy Vol. 2
  • Samurai Jack
  • Boogeyman
  • Doomed: The Untold Story of Roger Corman's the Fantastic Four
  • Training Day
  • Julie's Greenroom
  • Bargain Hunt
  • Come Together
  • Don't Fuck in the Woods
  • Baahubali 2: The Conclusion
  • The Originals
  • Elementary
  • Gotham
  • My Favorite Spy
  • Star Wars
  • Kung-Fu Yoga
  • Hawaii Five-0
  • The Big Bang Theory
  • Designated Survivor
  • The Night Watchmen
  • Colossal
  • The Devil's Advocate
  • The Blacklist

Recent Comments

  • credencedesire-rmz:

    please 480p this and its second season which is also out.

  • Marcus12435:

    Admin please re-upload

  • peyman usa:

    THE ORIGINALS S04E06 1080P WEBRIP HEVC X265-RMTEAM

  • aris73:

    thanks for the movie and the fast clicknupload links!!

  • gyuk:

    ClicknUpload link not working, please rup.
    Thanks!

  • gyuk:

    ClicknUpload link not working, please rup.
    Thanks!

  • gyuk:

    ClicknUpload link not working, please rup.
    Thanks!

  • thaone:

    Thanks

  • thaone:

    Thanks

  • Seabass: One of the dudes in bottom 2 died a few days ago...