Sign Up   |   Sign In  

Announcements

Want to support us?
Buy a RapidRAR account from our resellers:
Buy or renew a NitroFlare account via THIS LINK

04/19

2017

1

Comments

The Americans S05E07 720p WEB-DL DD5 1 H264-RARBG
[RR/NF/UL/UR]
Size: 1.4GB mkv H264 (HIGH) / AC3  HD  1280x720

The Americans
Click on the image to see full size
[RR/NF/UL/UR] The Americans S05E07 720p WEB-DL DD5 1 H264-RARBG (1.4GB) - Snapshot 1
File Information
[URL=http://imagecurl.com/viewer.php?file=49117622991833346179.png][IMG]http://imagecurl.com/images/49117622991833346179_thumb.png[/IMG][/URL]
[URL=http://imagecurl.com/viewer.php?file=32043376692339067156.png][IMG]http://imagecurl.com/images/32043376692339067156_thumb.png[/IMG][/URL]
[URL=http://imagecurl.com/viewer.php?file=36610914001298767754.png][IMG]http://imagecurl.com/images/36610914001298767754_thumb.png[/IMG][/URL]
[URL=http://imagecurl.com/viewer.php?file=00785371051810324903.png][IMG]http://imagecurl.com/images/00785371051810324903_thumb.png[/IMG][/URL]
[URL=http://imagecurl.com/viewer.php?file=50054123383257750478.png][IMG]http://imagecurl.com/images/50054123383257750478_thumb.png[/IMG][/URL]
[URL=http://imagecurl.com/viewer.php?file=89091584646944544497.png][IMG]http://imagecurl.com/images/89091584646944544497_thumb.png[/IMG][/URL]



[mediainfo]
Video
ID                                       : 1
Format                                   : AVC
Format/Info                              : Advanced Video Codec
Format profile                           : [email protected]
Format settings, CABAC                   : No
Format settings, ReFrames                : 2 frames
Codec ID                                 : V_MPEG4/ISO/AVC
Duration                                 : 44mn 22s
Bit rate                                 : 4 006 Kbps
Width                                    : 1 280 pixels
Height                                   : 720 pixels
Display aspect ratio                     : 16:9
Frame rate mode                          : Constant
Frame rate                               : 23.976 (24000/1001) fps
Color space                              : YUV
Chroma subsampling                       : 4:2:0
Bit depth                                : 8 bits
Scan type                                : Progressive
Bits/(Pixel*Frame)                       : 0.181
Stream size                              : 1.24 GiB (89%)
Title                                    : The.Americans.S05E07.720p.WEB-DL.DD5.1.H264-RARBG
Language                                 : English
Default                                  : Yes
Forced                                   : No
Color range                              : Limited
Color primaries                          : BT.709
Transfer characteristics                 : BT.709
Matrix coefficients                      : BT.709

Audio
ID                                       : 2
Format                                   : AC-3
Format/Info                              : Audio Coding 3
Mode extension                           : CM (complete main)
Format settings, Endianness              : Big
Codec ID                                 : A_AC3
Duration                                 : 44mn 22s
Bit rate mode                            : Constant
Bit rate                                 : 384 Kbps
Channel(s)                               : 6 channels
Channel positions                        : Front: L C R, Side: L R, LFE
Sampling rate                            : 48.0 KHz
Frame rate                               : 31.250 fps (1536 spf)
Compression mode                         : Lossy
Stream size                              : 122 MiB (9%)
Title                                    : The.Americans.S05E07.720p.WEB-DL.DD5.1.H264-RARBG
Language                                 : English
Default                                  : Yes
Forced                                   : No

Text #1
ID                                       : 3
Format                                   : UTF-8
Codec ID                                 : S_TEXT/UTF8
Codec ID/Info                            : UTF-8 Plain Text
Language                                 : English
Default                                  : Yes
Forced                                   : No

Text #2
ID                                       : 4
Format                                   : UTF-8
Codec ID                                 : S_TEXT/UTF8
Codec ID/Info                            : UTF-8 Plain Text
Title                                    : SDH
Language                                 : English
Default                                  : No
Forced                                   : No



[/mediainfo]
Download
File Container: MKV
Video/Audio Codec: H264 (HIGH) AC3
Video Resolution: 1280x720
 
 
 
 

Show us some love

1 Response to "[RR/NF/UL/UR] The Americans S05E07 720p WEB-DL DD5 1 H264-RARBG (1.4GB)"
05/20/17
02:10:13
Admin

RapidRAR re-uploaded with new RAR file(s) (users who couldn't download some parts need to download all parts again).

Leave a Comment

  • (never displayed)
  •  
        Members don't see captchas. Sign Up / Sign In
  • Notify me via email when someone responds.
  • Subscribe my Feeds
  • Facebook

Latest Episodes

Popular Movies and TV Shows

  • The Orville
  • Casualty
  • The X Factor
  • Sniper: Ultimate Kill
  • Innocent Blood
  • The ABCs of Death
  • Zoo
  • Mike Judge Presents: Tales from the Tour Bus
  • Room 104
  • Uncaged
  • The Book of Henry
  • #Stuck
  • Subterranea
  • Mr. Mercedes
  • Gotham
  • Chris Brown: Welcome to My Life
  • Killing Gunther
  • Real Time with Bill Maher
  • I am Frankie
  • South Park
  • Lone Wolves
  • Ghosted
  • The Little Hours
  • Pirates of the Caribbean: Dead Men Tell No Tales
  • The Sinner

Recent Comments