Sign Up   |   Sign In  

Announcements

Want to support us?
Buy a RapidRAR account from our resellers:
Buy or renew a NitroFlare account via THIS LINK

04/19

2017

1

Comments

The Americans S05E07 WEB-DL x264-RARBG
[RR/NF/UL/OL/UR/CU]
Size: 206MB mp4 H264 (HIGH) (AVC1) / AAC (LC) (MP4A) 720x400

The Americans
Click on the image to see full size
[RR/NF/UL/OL/UR/CU] The Americans S05E07 WEB-DL x264-RARBG (206MB) - Snapshot 1[RR/NF/UL/OL/UR/CU] The Americans S05E07 WEB-DL x264-RARBG (206MB) - Snapshot 2
File Information
[URL]http://www.imdb.com/title/tt2149175/[/URL]
[screenshots]
[URL=http://imagecurl.com/viewer.php?file=66333281122984155823.png][IMG]http://imagecurl.com/images/66333281122984155823_thumb.png[/IMG][/URL]
[URL=http://imagecurl.com/viewer.php?file=51644149818209799732.png][IMG]http://imagecurl.com/images/51644149818209799732_thumb.png[/IMG][/URL]
[URL=http://imagecurl.com/viewer.php?file=23427755081948344109.png][IMG]http://imagecurl.com/images/23427755081948344109_thumb.png[/IMG][/URL]
[URL=http://imagecurl.com/viewer.php?file=09035746202704591553.png][IMG]http://imagecurl.com/images/09035746202704591553_thumb.png[/IMG][/URL]

[/screenshots]


[mediainfo]
Video
ID                                       : 1
Format                                   : AVC
Format/Info                              : Advanced Video Codec
Format profile                           : [email protected]
Format settings, CABAC                   : Yes
Format settings, ReFrames                : 5 frames
Codec ID                                 : avc1
Codec ID/Info                            : Advanced Video Coding
Duration                                 : 44mn 21s
Bit rate                                 : 515 Kbps
Width                                    : 720 pixels
Height                                   : 400 pixels
Display aspect ratio                     : 16:9
Frame rate mode                          : Constant
Frame rate                               : 23.976 (24000/1001) fps
Color space                              : YUV
Chroma subsampling                       : 4:2:0
Bit depth                                : 8 bits
Scan type                                : Progressive
Bits/(Pixel*Frame)                       : 0.075
Stream size                              : 164 MiB (79%)
Title                                    : RARBG.COM - The.Americans.S05E07.WEB-DL.x264-RARBG
Writing library                          : x264 core 148 r2597M e86f3a1
 Encoding settings                        : cabac=1 / ref=5 / deblock=1:-1:-1 / analyse=0x3:0x113 / me=umh / subme=9 / psy=1 / psy_rd=1.00:0.15 / mixed_ref=1 / me_range=16 / chroma_me=1 / trellis=2 / 8x8dct=1 / cqm=0 / deadz / fast pskip=1 / chroma_qp_offset=-3 / threads=12 / lookahead_threads=1 / sliced_threads=0 / nr=0 / decimate=1 / interlaced=0 / bluray_compat=0 / c / bframes=3 / b_pyramid=2 / b_adapt=2 / b_bias=0 / direct=3 / weightb=1 / open_gop=0 / weightp=2 / keyint=250 / keyint_min=23 / scenecut=40 / intra_refresh=0 / rc_lookahead=50 / rc=crf / mbtree=1 / crf=19.0 / qcomp=0.60 / qpmin=0 / qpmax=69 / qpstep=4 / ip_ratio=1.40 / aq=1:1.00
Language                                 : English
Encoded date                             : UTC 2017-04-19 09:21:26
Tagged date                              : UTC 2017-04-19 09:21:26

Audio
ID                                       : 2
Format                                   : AAC
Format/Info                              : Advanced Audio Codec
Format profile                           : LC
Codec ID                                 : 40
Duration                                 : 44mn 22s
Duration_LastFrame                       : -11ms
Bit rate mode                            : Constant
Bit rate                                 : 128 Kbps
Channel(s)                               : 2 channels
Channel positions                        : Front: L R
Sampling rate                            : 48.0 KHz
Frame rate                               : 46.875 fps (1024 spf)
Compression mode                         : Lossy
Stream size                              : 40.6 MiB (20%)
Title                                    : RARBG.COM - The.Americans.S05E07.WEB-DL.x264-RARBG
Language                                 : English
Default                                  : Yes
Alternate group                          : 1
Encoded date                             : UTC 2017-04-19 09:21:26
Tagged date                              : UTC 2017-04-19 09:21:26



[/mediainfo]
Download
File Container: MP4
Video/Audio Codec: H264 (HIGH) (AVC1) AAC (LC) (MP4A)
Video Resolution: 720x400
 
 
 
 
 
 

Show us some love

1 Response to "[RR/NF/UL/OL/UR/CU] The Americans S05E07 WEB-DL x264-RARBG (206MB)"
05/20/17
02:10:13
Admin

RapidRAR re-uploaded with new RAR file(s) (users who couldn't download some parts need to download all parts again).

Leave a Comment

  • (never displayed)
  •  
        Members don't see captchas. Sign Up / Sign In
  • Notify me via email when someone responds.
  • Subscribe my Feeds
  • Facebook

Latest Episodes

Popular Movies and TV Shows

  • Top of the Lake
  • Operation Dunkirk
  • Suits
  • Blood Drive
  • Kuudes kerta
  • Spider-Man: Homecoming
  • Queen Sugar
  • Will
  • Snowfall
  • Inran naru ichizoku: Dai-ni-shô - zetsurin no hate ni
  • Shot Caller
  • Bill Burr: I'm Sorry You Feel That Way
  • Salvation
  • Younger
  • I'm Sorry
  • Widziadlo
  • King Arthur: Legend of the Sword
  • Mickey One
  • Game of Thrones
  • Shooter
  • American Dad!
  • Awaken the Shadowman
  • Snatched
  • Hunter's Prayer
  • Preacher

Recent Comments