Sign Up   |   Sign In  

Announcements

Want to support us?
Buy a RapidRAR account from our resellers:
Buy or renew a NitroFlare account via THIS LINK
Until further notice, We will continue uploading files to uploaded.net.

02/07

2017

No

Comments

The Bachelor S21E06 WEBRip x264-RARBG
[RR/NF/OL/OLw/UR/CU]
Size: 750MB 2 CDs mp4 H264 (HIGH) (AVC1) / AAC (LC) (MP4A) 720x400

The Bachelor
Click on the image to see full size
[RR/NF/OL/OLw/UR/CU] The Bachelor S21E06 WEBRip x264-RARBG (750MB) - Snapshot 1[RR/NF/OL/OLw/UR/CU] The Bachelor S21E06 WEBRip x264-RARBG (750MB) - Snapshot 2
File Information
[URL]http://www.imdb.com/title/tt0313038/[/URL]
[screenshots]
[URL=http://imagecurl.com/viewer.php?file=04764476291379927763.png][IMG]http://imagecurl.com/images/04764476291379927763_thumb.png[/IMG][/URL]
[URL=http://imagecurl.com/viewer.php?file=69980839545914511275.png][IMG]http://imagecurl.com/images/69980839545914511275_thumb.png[/IMG][/URL]
[URL=http://imagecurl.com/viewer.php?file=88306654040897547699.png][IMG]http://imagecurl.com/images/88306654040897547699_thumb.png[/IMG][/URL]
[URL=http://imagecurl.com/viewer.php?file=83824959922854930957.png][IMG]http://imagecurl.com/images/83824959922854930957_thumb.png[/IMG][/URL]
[URL=http://imagecurl.com/viewer.php?file=11040592956102159547.png][IMG]http://imagecurl.com/images/11040592956102159547_thumb.png[/IMG][/URL]

[/screenshots]


[mediainfo]
Video
ID                                       : 1
Format                                   : AVC
Format/Info                              : Advanced Video Codec
Format profile                           : [email protected]
Format settings, CABAC                   : Yes
Format settings, ReFrames                : 5 frames
Codec ID                                 : avc1
Codec ID/Info                            : Advanced Video Coding
Duration                                 : 1h 24mn
Bit rate                                 : 1 100 Kbps
Width                                    : 720 pixels
Height                                   : 400 pixels
Display aspect ratio                     : 16:9
Frame rate mode                          : Constant
Frame rate                               : 29.970 (30000/1001) fps
Color space                              : YUV
Chroma subsampling                       : 4:2:0
Bit depth                                : 8 bits
Scan type                                : Progressive
Bits/(Pixel*Frame)                       : 0.127
Stream size                              : 666 MiB (89%)
Title                                    : RARBG.COM - The.Bachelor.S21E06.WEBRip.x264-RARBG
Writing library                          : x264 core 148 r2597M e86f3a1
 Encoding settings                        : cabac=1 / ref=5 / deblock=1:-1:-1 / analyse=0x3:0x113 / me=umh / subme=9 / psy=1 / psy_rd=1.00:0.15 / mixed_ref=1 / me_range=16 / chroma_me=1 / trellis=2 / 8x8dct=1 / cqm=0 / deadz / fast pskip=1 / chroma_qp_offset=-3 / threads=12 / lookahead_threads=1 / sliced_threads=0 / nr=0 / decimate=1 / interlaced=0 / bluray_compat=0 / c / bframes=3 / b_pyramid=2 / b_adapt=2 / b_bias=0 / direct=3 / weightb=1 / open_gop=0 / weightp=2 / keyint=250 / keyint_min=25 / scenecut=40 / intra_refresh=0 / rc_lookahead=50 / rc=abr / mbtree=1 / bitrate=1100 / ratetol=1.0 / qcomp=0.60 / qpmin=0 / qpmax=69 / qpstep=4 / ip_ratio=1.40 / aq=1:1.00
Encoded date                             : UTC 2017-02-07 15:31:26
Tagged date                              : UTC 2017-02-07 15:31:26

Audio
ID                                       : 2
Format                                   : AAC
Format/Info                              : Advanced Audio Codec
Format profile                           : LC
Codec ID                                 : 40
Duration                                 : 1h 24mn
Bit rate mode                            : Constant
Bit rate                                 : 128 Kbps
Channel(s)                               : 2 channels
Channel positions                        : Front: L R
Sampling rate                            : 48.0 KHz
Frame rate                               : 46.875 fps (1024 spf)
Compression mode                         : Lossy
Stream size                              : 77.6 MiB (10%)
Title                                    : RARBG.COM - The.Bachelor.S21E06.WEBRip.x264-RARBG
Language                                 : English
Default                                  : Yes
Alternate group                          : 1
Encoded date                             : UTC 2017-02-07 15:31:26
Tagged date                              : UTC 2017-02-07 15:31:26



[/mediainfo]
Download
File Container: MP4
Video/Audio Codec: H264 (HIGH) (AVC1) AAC (LC) (MP4A)
Video Resolution: 720x400
Watch Online [MP4]

Leave a Comment

  • (never displayed)
  •  
        Members don't see captchas. Sign Up / Sign In
  • Notify me via email when someone responds.
  • Subscribe my Feeds
  • Facebook

Latest Episodes

Popular Movies and TV Shows

  • Titans
  • Narcos: Mexico
  • The Best Thing I Ever Ate
  • Songs to Have Sex To
  • The Ballad of Buster Scruggs
  • Sea Change
  • The Sky Princess
  • Return to Amish
  • Blindspot
  • Crazy Ex-Girlfriend
  • The Wrong Roommate
  • Showgirls 2: Penny's from Heaven
  • Midnight, Texas
  • The Kominsky Method
  • Prince of Peoria
  • Lucky Luke
  • To Die For
  • Mission: Impossible - Fallout
  • Hawaii Five-0
  • MacGyver
  • Jonathan
  • Room 104
  • Speed Kills
  • The Clovehitch Killer
  • The Big Bang Theory

Recent Comments

Archives