Sign Up   |   Sign In  
WalkerWWE NXTReginald the VampireColdplay Live in São PauloPulp FictionDeath GamesThe Bold and the BeautifulInside No. 9The Artifice GirlOriginThe PrimevalsThe Young and the RestlessThe AcolytePresumed InnocentDark MatterMysteries of the Terracotta WarriorsNinja TerminatorCamille 2000The Big Door PrizeTryingAcapulcoHow Music Got FreeLost SoulzThe Beast in the JungleThe Daily Show

Announcements

05/24

2024

1

Comments

The Big Cigar S01E03 Guns and Matzah 1080p ATVP WEB-DL DDP5 1 Atmos H 264-FLUX
[RR/NF]
Size: 2.8GB mkv H264 (HIGH) / EAC3  HD  1920x960

The Big Cigar
File Information
[img]http://lookpic.com/cdn/i2/t/0524202409402674-1.jpg[/img]
[img]http://lookpic.com/cdn/i2/t/0524202409402674-2.jpg[/img]
[img]http://lookpic.com/cdn/i2/t/0524202409402674-3.jpg[/img]

General
Unique ID                                : 39006841035893833399448301819432614171 (0x1D5871BEDEC53CD8A1C538730BED391B)
Complete name                            : The Big Cigar S01E03 Guns and Matzah 1080p ATVP WEB-DL DDP5 1 Atmos H 264-FLUX.mkv
Format                                   : Matroska
Format version                           : Version 4
File size                                : 2.83 GiB
Duration                                 : 37 min 50 s
Overall bit rate                         : 10.7 Mb/s
Frame rate                               : 23.976 FPS
Writing application                      : mkvmerge v79.0 ('Funeral Pyres') 64-bit
Writing library                          : libebml v1.4.4 + libmatroska v1.7.1

Video
ID                                       : 1
Format                                   : AVC
Format/Info                              : Advanced Video Codec
Format profile                           : High@L4
Format settings                          : CABAC / 4 Ref Frames
Format settings, CABAC                   : Yes
Format settings, Reference frames        : 4 frames
Codec ID                                 : V_MPEG4/ISO/AVC
Duration                                 : 37 min 50 s
Bit rate                                 : 9 931 kb/s
Width                                    : 1 920 pixels
Height                                   : 960 pixels
Display aspect ratio                     : 2.000
Frame rate mode                          : Constant
Frame rate                               : 23.976 (24000/1001) FPS
Color space                              : YUV
Chroma subsampling                       : 4:2:0
Bit depth                                : 8 bits
Scan type                                : Progressive
Bits/(Pixel*Frame)                       : 0.225
Stream size                              : 2.63 GiB (93%)
Language                                 : English
Default                                  : Yes
Forced                                   : No
Color range                              : Limited
Color primaries                          : BT.709
Transfer characteristics                 : BT.709
Matrix coefficients                      : BT.709

Audio
ID                                       : 2
Format                                   : E-AC-3 JOC
Format/Info                              : Enhanced AC-3 with Joint Object Coding
Commercial name                          : Dolby Digital Plus with Dolby Atmos
Codec ID                                 : A_EAC3
Duration                                 : 37 min 50 s
Bit rate mode                            : Constant
Bit rate                                 : 768 kb/s
Channel(s)                               : 6 channels
Channel layout                           : L R C LFE Ls Rs
Sampling rate                            : 48.0 kHz
Frame rate                               : 31.250 FPS (1536 SPF)
Compression mode                         : Lossy
Stream size                              : 208 MiB (7%)
Language                                 : English
Service kind                             : Complete Main
Default                                  : Yes
Forced                                   : No
Complexity index                         : 16
Number of dynamic objects                : 15
Bed channel count                        : 1 channel
Bed channel configuration                : LFE

Text #1
ID                                       : 3
Format                                   : UTF-8
Codec ID                                 : S_TEXT/UTF8
Codec ID/Info                            : UTF-8 Plain Text
Duration                                 : 35 min 32 s
Bit rate                                 : 81 b/s
Frame rate                               : 0.263 FPS
Count of elements                        : 560
Stream size                              : 21.3 KiB (0%)
Language                                 : English
Default                                  : No
Forced                                   : No

Text #2
ID                                       : 4
Format                                   : UTF-8
Codec ID                                 : S_TEXT/UTF8
Codec ID/Info                            : UTF-8 Plain Text
Duration                                 : 36 min 35 s
Bit rate                                 : 90 b/s
Frame rate                               : 0.278 FPS
Count of elements                        : 611
Stream size                              : 24.1 KiB (0%)
Title                                    : SDH
Language                                 : English
Default                                  : No
Forced                                   : No

Text #3
ID                                       : 5
Format                                   : UTF-8
Codec ID                                 : S_TEXT/UTF8
Codec ID/Info                            : UTF-8 Plain Text
Duration                                 : 37 min 17 s
Bit rate                                 : 114 b/s
Frame rate                               : 0.254 FPS
Count of elements                        : 568
Stream size                              : 31.3 KiB (0%)
Language                                 : Arabic
Default                                  : No
Forced                                   : No

Text #4
ID                                       : 6
Format                                   : UTF-8
Codec ID                                 : S_TEXT/UTF8
Codec ID/Info                            : UTF-8 Plain Text
Duration                                 : 37 min 4 s
Bit rate                                 : 111 b/s
Frame rate                               : 0.202 FPS
Count of elements                        : 450
Stream size                              : 30.2 KiB (0%)
Language                                 : Bulgarian
Default                                  : No
Forced                                   : No

Text #5
ID                                       : 7
Format                                   : UTF-8
Codec ID                                 : S_TEXT/UTF8
Codec ID/Info                            : UTF-8 Plain Text
Duration                                 : 37 min 17 s
Bit rate                                 : 69 b/s
Frame rate                               : 0.255 FPS
Count of elements                        : 570
Stream size                              : 19.1 KiB (0%)
Title                                    : Simplified
Language                                 : Chinese (Simplified)
Default                                  : No
Forced                                   : No

Text #6
ID                                       : 8
Format                                   : UTF-8
Codec ID                                 : S_TEXT/UTF8
Codec ID/Info                            : UTF-8 Plain Text
Duration                                 : 37 min 17 s
Bit rate                                 : 69 b/s
Frame rate                               : 0.255 FPS
Count of elements                        : 571
Stream size                              : 19.1 KiB (0%)
Title                                    : Traditional
Language                                 : Chinese (Traditional)
Default                                  : No
Forced                                   : No

Text #7
ID                                       : 9
Format                                   : UTF-8
Codec ID                                 : S_TEXT/UTF8
Codec ID/Info                            : UTF-8 Plain Text
Duration                                 : 37 min 4 s
Bit rate                                 : 65 b/s
Frame rate                               : 0.250 FPS
Count of elements                        : 556
Stream size                              : 17.7 KiB (0%)
Language                                 : Czech
Default                                  : No
Forced                                   : No

Text #8
ID                                       : 10
Format                                   : UTF-8
Codec ID                                 : S_TEXT/UTF8
Codec ID/Info                            : UTF-8 Plain Text
Duration                                 : 37 min 4 s
Bit rate                                 : 77 b/s
Frame rate                               : 0.254 FPS
Count of elements                        : 565
Stream size                              : 21.0 KiB (0%)
Language                                 : Danish
Default                                  : No
Forced                                   : No

Text #9
ID                                       : 11
Format                                   : UTF-8
Codec ID                                 : S_TEXT/UTF8
Codec ID/Info                            : UTF-8 Plain Text
Duration                                 : 37 min 3 s
Bit rate                                 : 69 b/s
Frame rate                               : 0.255 FPS
Count of elements                        : 568
Stream size                              : 18.7 KiB (0%)
Language                                 : German
Default                                  : No
Forced                                   : No

Text #10
ID                                       : 12
Format                                   : UTF-8
Codec ID                                 : S_TEXT/UTF8
Codec ID/Info                            : UTF-8 Plain Text
Duration                                 : 37 min 17 s
Bit rate                                 : 120 b/s
Frame rate                               : 0.248 FPS
Count of elements                        : 556
Stream size                              : 32.8 KiB (0%)
Language                                 : Greek
Default                                  : No
Forced                                   : No

Text #11
ID                                       : 13
Format                                   : UTF-8
Codec ID                                 : S_TEXT/UTF8
Codec ID/Info                            : UTF-8 Plain Text
Duration                                 : 37 min 17 s
Bit rate                                 : 72 b/s
Frame rate                               : 0.251 FPS
Count of elements                        : 562
Stream size                              : 19.9 KiB (0%)
Title                                    : Latin American
Language                                 : Spanish (Latin America)
Default                                  : No
Forced                                   : No

Text #12
ID                                       : 14
Format                                   : UTF-8
Codec ID                                 : S_TEXT/UTF8
Codec ID/Info                            : UTF-8 Plain Text
Duration                                 : 37 min 17 s
Bit rate                                 : 77 b/s
Frame rate                               : 0.261 FPS
Count of elements                        : 584
Stream size                              : 21.2 KiB (0%)
Language                                 : Spanish (ES)
Default                                  : No
Forced                                   : No

Text #13
ID                                       : 15
Format                                   : UTF-8
Codec ID                                 : S_TEXT/UTF8
Codec ID/Info                            : UTF-8 Plain Text
Duration                                 : 37 min 4 s
Bit rate                                 : 69 b/s
Frame rate                               : 0.238 FPS
Count of elements                        : 530
Stream size                              : 18.8 KiB (0%)
Language                                 : Estonian
Default                                  : No
Forced                                   : No

Text #14
ID                                       : 16
Format                                   : UTF-8
Codec ID                                 : S_TEXT/UTF8
Codec ID/Info                            : UTF-8 Plain Text
Duration                                 : 37 min 4 s
Bit rate                                 : 69 b/s
Frame rate                               : 0.254 FPS
Count of elements                        : 564
Stream size                              : 18.9 KiB (0%)
Language                                 : Finnish
Default                                  : No
Forced                                   : No

Text #15
ID                                       : 17
Format                                   : UTF-8
Codec ID                                 : S_TEXT/UTF8
Codec ID/Info                            : UTF-8 Plain Text
Duration                                 : 36 min 56 s
Bit rate                                 : 68 b/s
Frame rate                               : 0.261 FPS
Count of elements                        : 579
Stream size                              : 18.5 KiB (0%)
Title                                    : Canadian
Language                                 : French (CA)
Default                                  : No
Forced                                   : No

Text #16
ID                                       : 18
Format                                   : UTF-8
Codec ID                                 : S_TEXT/UTF8
Codec ID/Info                            : UTF-8 Plain Text
Duration                                 : 36 min 56 s
Bit rate                                 : 68 b/s
Frame rate                               : 0.261 FPS
Count of elements                        : 578
Stream size                              : 18.5 KiB (0%)
Language                                 : French (FR)
Default                                  : No
Forced                                   : No

Text #17
ID                                       : 19
Format                                   : UTF-8
Codec ID                                 : S_TEXT/UTF8
Codec ID/Info                            : UTF-8 Plain Text
Duration                                 : 37 min 17 s
Bit rate                                 : 118 b/s
Frame rate                               : 0.255 FPS
Count of elements                        : 570
Stream size                              : 32.4 KiB (0%)
Language                                 : Hebrew
Default                                  : No
Forced                                   : No

Text #18
ID                                       : 20
Format                                   : UTF-8
Codec ID                                 : S_TEXT/UTF8
Codec ID/Info                            : UTF-8 Plain Text
Duration                                 : 37 min 17 s
Bit rate                                 : 209 b/s
Frame rate                               : 0.255 FPS
Count of elements                        : 571
Stream size                              : 57.2 KiB (0%)
Language                                 : Hindi
Default                                  : No
Forced                                   : No

Text #19
ID                                       : 21
Format                                   : UTF-8
Codec ID                                 : S_TEXT/UTF8
Codec ID/Info                            : UTF-8 Plain Text
Duration                                 : 37 min 4 s
Bit rate                                 : 78 b/s
Frame rate                               : 0.254 FPS
Count of elements                        : 566
Stream size                              : 21.2 KiB (0%)
Language                                 : Hungarian
Default                                  : No
Forced                                   : No

Text #20
ID                                       : 22
Format                                   : UTF-8
Codec ID                                 : S_TEXT/UTF8
Codec ID/Info                            : UTF-8 Plain Text
Duration                                 : 37 min 4 s
Bit rate                                 : 77 b/s
Frame rate                               : 0.254 FPS
Count of elements                        : 564
Stream size                              : 21.1 KiB (0%)
Language                                 : Indonesian
Default                                  : No
Forced                                   : No

Text #21
ID                                       : 23
Format                                   : UTF-8
Codec ID                                 : S_TEXT/UTF8
Codec ID/Info                            : UTF-8 Plain Text
Duration                                 : 37 min 6 s
Bit rate                                 : 75 b/s
Frame rate                               : 0.248 FPS
Count of elements                        : 553
Stream size                              : 20.4 KiB (0%)
Language                                 : Italian
Default                                  : No
Forced                                   : No

Text #22
ID                                       : 24
Format                                   : UTF-8
Codec ID                                 : S_TEXT/UTF8
Codec ID/Info                            : UTF-8 Plain Text
Duration                                 : 37 min 16 s
Bit rate                                 : 60 b/s
Frame rate                               : 0.263 FPS
Count of elements                        : 589
Stream size                              : 16.5 KiB (0%)
Language                                 : Japanese
Default                                  : No
Forced                                   : No

Text #23
ID                                       : 25
Format                                   : UTF-8
Codec ID                                 : S_TEXT/UTF8
Codec ID/Info                            : UTF-8 Plain Text
Duration                                 : 37 min 17 s
Bit rate                                 : 83 b/s
Frame rate                               : 0.255 FPS
Count of elements                        : 571
Stream size                              : 22.7 KiB (0%)
Language                                 : Korean
Default                                  : No
Forced                                   : No

Text #24
ID                                       : 26
Format                                   : UTF-8
Codec ID                                 : S_TEXT/UTF8
Codec ID/Info                            : UTF-8 Plain Text
Duration                                 : 37 min 17 s
Bit rate                                 : 77 b/s
Frame rate                               : 0.253 FPS
Count of elements                        : 567
Stream size                              : 21.3 KiB (0%)
Language                                 : Lithuanian
Default                                  : No
Forced                                   : No

Text #25
ID                                       : 27
Format                                   : UTF-8
Codec ID                                 : S_TEXT/UTF8
Codec ID/Info                            : UTF-8 Plain Text
Duration                                 : 37 min 17 s
Bit rate                                 : 74 b/s
Frame rate                               : 0.253 FPS
Count of elements                        : 566
Stream size                              : 20.3 KiB (0%)
Language                                 : Latvian
Default                                  : No
Forced                                   : No

Text #26
ID                                       : 28
Format                                   : UTF-8
Codec ID                                 : S_TEXT/UTF8
Codec ID/Info                            : UTF-8 Plain Text
Duration                                 : 37 min 4 s
Bit rate                                 : 73 b/s
Frame rate                               : 0.254 FPS
Count of elements                        : 566
Stream size                              : 19.9 KiB (0%)
Language                                 : Malay
Default                                  : No
Forced                                   : No

Text #27
ID                                       : 29
Format                                   : UTF-8
Codec ID                                 : S_TEXT/UTF8
Codec ID/Info                            : UTF-8 Plain Text
Duration                                 : 37 min 4 s
Bit rate                                 : 69 b/s
Frame rate                               : 0.197 FPS
Count of elements                        : 439
Stream size                              : 18.9 KiB (0%)
Language                                 : Dutch
Default                                  : No
Forced                                   : No

Text #28
ID                                       : 30
Format                                   : UTF-8
Codec ID                                 : S_TEXT/UTF8
Codec ID/Info                            : UTF-8 Plain Text
Duration                                 : 37 min 4 s
Bit rate                                 : 65 b/s
Frame rate                               : 0.222 FPS
Count of elements                        : 493
Stream size                              : 17.8 KiB (0%)
Language                                 : Norwegian
Default                                  : No
Forced                                   : No

Text #29
ID                                       : 31
Format                                   : UTF-8
Codec ID                                 : S_TEXT/UTF8
Codec ID/Info                            : UTF-8 Plain Text
Duration                                 : 37 min 4 s
Bit rate                                 : 64 b/s
Frame rate                               : 0.241 FPS
Count of elements                        : 536
Stream size                              : 17.6 KiB (0%)
Language                                 : Polish
Default                                  : No
Forced                                   : No

Text #30
ID                                       : 32
Format                                   : UTF-8
Codec ID                                 : S_TEXT/UTF8
Codec ID/Info                            : UTF-8 Plain Text
Duration                                 : 37 min 4 s
Bit rate                                 : 72 b/s
Frame rate                               : 0.250 FPS
Count of elements                        : 556
Stream size                              : 19.8 KiB (0%)
Language                                 : Portuguese
Default                                  : No
Forced                                   : No

Text #31
ID                                       : 33
Format                                   : UTF-8
Codec ID                                 : S_TEXT/UTF8
Codec ID/Info                            : UTF-8 Plain Text
Duration                                 : 37 min 4 s
Bit rate                                 : 66 b/s
Frame rate                               : 0.246 FPS
Count of elements                        : 548
Stream size                              : 18.0 KiB (0%)
Title                                    : Brazilian
Language                                 : Portuguese (BR)
Default                                  : No
Forced                                   : No

Text #32
ID                                       : 34
Format                                   : UTF-8
Codec ID                                 : S_TEXT/UTF8
Codec ID/Info                            : UTF-8 Plain Text
Duration                                 : 37 min 17 s
Bit rate                                 : 104 b/s
Frame rate                               : 0.253 FPS
Count of elements                        : 566
Stream size                              : 28.6 KiB (0%)
Language                                 : Russian
Default                                  : No
Forced                                   : No

Text #33
ID                                       : 35
Format                                   : UTF-8
Codec ID                                 : S_TEXT/UTF8
Codec ID/Info                            : UTF-8 Plain Text
Duration                                 : 37 min 4 s
Bit rate                                 : 70 b/s
Frame rate                               : 0.251 FPS
Count of elements                        : 558
Stream size                              : 19.0 KiB (0%)
Language                                 : Slovak
Default                                  : No
Forced                                   : No

Text #34
ID                                       : 36
Format                                   : UTF-8
Codec ID                                 : S_TEXT/UTF8
Codec ID/Info                            : UTF-8 Plain Text
Duration                                 : 37 min 4 s
Bit rate                                 : 55 b/s
Frame rate                               : 0.191 FPS
Count of elements                        : 424
Stream size                              : 15.2 KiB (0%)
Language                                 : Slovenian
Default                                  : No
Forced                                   : No

Text #35
ID                                       : 37
Format                                   : UTF-8
Codec ID                                 : S_TEXT/UTF8
Codec ID/Info                            : UTF-8 Plain Text
Duration                                 : 37 min 4 s
Bit rate                                 : 74 b/s
Frame rate                               : 0.254 FPS
Count of elements                        : 565
Stream size                              : 20.2 KiB (0%)
Language                                 : Swedish
Default                                  : No
Forced                                   : No

Text #36
ID                                       : 38
Format                                   : UTF-8
Codec ID                                 : S_TEXT/UTF8
Codec ID/Info                            : UTF-8 Plain Text
Duration                                 : 37 min 17 s
Bit rate                                 : 231 b/s
Frame rate                               : 0.255 FPS
Count of elements                        : 570
Stream size                              : 63.1 KiB (0%)
Language                                 : Tamil
Default                                  : No
Forced                                   : No

Text #37
ID                                       : 39
Format                                   : UTF-8
Codec ID                                 : S_TEXT/UTF8
Codec ID/Info                            : UTF-8 Plain Text
Duration                                 : 37 min 17 s
Bit rate                                 : 227 b/s
Frame rate                               : 0.255 FPS
Count of elements                        : 570
Stream size                              : 62.1 KiB (0%)
Language                                 : Telugu
Default                                  : No
Forced                                   : No

Text #38
ID                                       : 40
Format                                   : UTF-8
Codec ID                                 : S_TEXT/UTF8
Codec ID/Info                            : UTF-8 Plain Text
Duration                                 : 37 min 17 s
Bit rate                                 : 156 b/s
Frame rate                               : 0.255 FPS
Count of elements                        : 570
Stream size                              : 42.7 KiB (0%)
Language                                 : Thai
Default                                  : No
Forced                                   : No

Text #39
ID                                       : 41
Format                                   : UTF-8
Codec ID                                 : S_TEXT/UTF8
Codec ID/Info                            : UTF-8 Plain Text
Duration                                 : 37 min 4 s
Bit rate                                 : 73 b/s
Frame rate                               : 0.253 FPS
Count of elements                        : 562
Stream size                              : 19.9 KiB (0%)
Language                                 : Turkish
Default                                  : No
Forced                                   : No

Text #40
ID                                       : 42
Format                                   : UTF-8
Codec ID                                 : S_TEXT/UTF8
Codec ID/Info                            : UTF-8 Plain Text
Duration                                 : 37 min 17 s
Bit rate                                 : 113 b/s
Frame rate                               : 0.255 FPS
Count of elements                        : 570
Stream size                              : 30.9 KiB (0%)
Language                                 : Ukrainian
Default                                  : No
Forced                                   : No

Text #41
ID                                       : 43
Format                                   : UTF-8
Codec ID                                 : S_TEXT/UTF8
Codec ID/Info                            : UTF-8 Plain Text
Duration                                 : 37 min 4 s
Bit rate                                 : 92 b/s
Frame rate                               : 0.255 FPS
Count of elements                        : 567
Stream size                              : 25.2 KiB (0%)
Language                                 : Vietnamese
Default                                  : No
Forced                                   : No

Text #42
ID                                       : 44
Format                                   : UTF-8
Codec ID                                 : S_TEXT/UTF8
Codec ID/Info                            : UTF-8 Plain Text
Duration                                 : 37 min 17 s
Bit rate                                 : 60 b/s
Frame rate                               : 0.255 FPS
Count of elements                        : 571
Stream size                              : 16.6 KiB (0%)
Title                                    : Traditional
Language                                 : Cantonese (Hant)
Default                                  : No
Forced                                   : No

Menu
00:00:00.000                             : en:Studio Logo
00:00:08.843                             : en:Recap
00:01:00.937                             : en:Scene 01
00:04:43.076                             : en:Intro
00:05:31.534                             : en:Scene 02
00:36:44.166                             : en:Credits



Download
File Container: MKV
Video/Audio Codec: H264 (HIGH) EAC3
Video Resolution: 1920x960

1 Response to "[RR/NF] The Big Cigar S01E03 Guns and Matzah 1080p ATVP WEB-DL DDP5 1 Atmos H 264-FLUX (2.8GB)"
05/24/24
12:29:01
ReadyPlayerOne

Thank You

Please Login to post a comment.
If you don't have any account, please Register.
  • Subscribe my Feeds
  • Facebook
Encoding Queue:  x264  x265

Latest Episodes

Popular Movies and TV Shows

  • Walker
  • WWE NXT
  • Reginald the Vampire
  • Coldplay Live in São Paulo
  • Pulp Fiction
  • Death Games
  • The Bold and the Beautiful
  • Inside No. 9
  • The Artifice Girl
  • Origin
  • The Primevals
  • The Young and the Restless
  • The Acolyte
  • Presumed Innocent
  • Dark Matter
  • Mysteries of the Terracotta Warriors
  • Ninja Terminator
  • Camille 2000
  • The Big Door Prize
  • Trying
  • Acapulco
  • How Music Got Free
  • Lost Soulz
  • The Beast in the Jungle
  • The Daily Show

Recent Comments

  • KissclTum: [url=https://kisstom.ru/prices]имплант с коронкой цена кисс [/url] Tegs: и...
  • Diggety247:

    BrokenHanded, Try using a DL manager.

  • BrokenHanded: clicknupload does not seem to work for past few days. keep getting an error saying the site is sendi...
  • Bud: Helps if you actually add these to the "Late Night with Seth Meyers" page too...
  • rambaldi70:

    Hy! Right now, my download speed : 1 Mb/s
    this is ok?
    Tx answer

  • Cinque_Persson: At 183 MB this had to be something completely different. In fact it's just the main actors commentin...
  • meyat74:

    my bad, should be full season

  • Oscar2:

    Halo "is" a good show

  • MeH:

    "one of the most impressive scenes"

  • rappet:

    Unfortunately, episode 2 not playing and episode 3 half missing (only 37 minutes long).

  • Anovani:

    Nice 1

  • shark:

    Will there be a sequel?

  • sjors:

    This release in in Russian with Russian subs. No English.

  • RapidRabbit98: I'll ask again Forged in Fire Series 11 episode 1 - anyone have it?

Archives