Sign Up   |   Sign In  

Announcements

Want to support us?
Buy a RapidRAR account from our resellers:
Buy or renew a NitroFlare account via THIS LINK

04/21

2017

15

Comments

The Blacklist S04E16 1080p WEB-DL DD5 1 H264-RARBG
[RR/NF/UL/UR]
Size: 1.7GB mkv H264 (HIGH) / AC3  HD  1912x1072

The Blacklist
Click on the image to see full size
[RR/NF/UL/UR] The Blacklist S04E16 1080p WEB-DL DD5 1 H264-RARBG (1.7GB) - Snapshot 1
File Information
[URL=http://imagecurl.com/viewer.php?file=29481238857396150743.png][IMG]http://imagecurl.com/images/29481238857396150743_thumb.png[/IMG][/URL]
[URL=http://imagecurl.com/viewer.php?file=98053090728741435599.png][IMG]http://imagecurl.com/images/98053090728741435599_thumb.png[/IMG][/URL]
[URL=http://imagecurl.com/viewer.php?file=08015925031586780971.png][IMG]http://imagecurl.com/images/08015925031586780971_thumb.png[/IMG][/URL]
[URL=http://imagecurl.com/viewer.php?file=90260973486594572363.png][IMG]http://imagecurl.com/images/90260973486594572363_thumb.png[/IMG][/URL]
[URL=http://imagecurl.com/viewer.php?file=79783789808490679918.png][IMG]http://imagecurl.com/images/79783789808490679918_thumb.png[/IMG][/URL]
[URL=http://imagecurl.com/viewer.php?file=25832050998029175845.png][IMG]http://imagecurl.com/images/25832050998029175845_thumb.png[/IMG][/URL]



[mediainfo]
Video
ID                                       : 1
Format                                   : AVC
Format/Info                              : Advanced Video Codec
Format profile                           : [email protected]
Format settings, CABAC                   : Yes
Format settings, ReFrames                : 4 frames
Codec ID                                 : V_MPEG4/ISO/AVC
Duration                                 : 42mn 58s
Bit rate                                 : 5 102 Kbps
Width                                    : 1 912 pixels
Height                                   : 1 072 pixels
Display aspect ratio                     : 16:9
Frame rate mode                          : Constant
Frame rate                               : 23.976 (24000/1001) fps
Color space                              : YUV
Chroma subsampling                       : 4:2:0
Bit depth                                : 8 bits
Scan type                                : Progressive
Bits/(Pixel*Frame)                       : 0.104
Stream size                              : 1.53 GiB (91%)
Title                                    : The.Blacklist.S04E16.1080p.WEB-DL.DD5.1.H264-RARBG
Language                                 : English
Default                                  : Yes
Forced                                   : No
Color range                              : Limited
Color primaries                          : BT.709
Transfer characteristics                 : BT.709
Matrix coefficients                      : BT.709

Audio
ID                                       : 2
Format                                   : AC-3
Format/Info                              : Audio Coding 3
Mode extension                           : CM (complete main)
Format settings, Endianness              : Big
Codec ID                                 : A_AC3
Duration                                 : 42mn 58s
Bit rate mode                            : Constant
Bit rate                                 : 384 Kbps
Channel(s)                               : 6 channels
Channel positions                        : Front: L C R, Side: L R, LFE
Sampling rate                            : 48.0 KHz
Frame rate                               : 31.250 fps (1536 spf)
Compression mode                         : Lossy
Stream size                              : 118 MiB (7%)
Title                                    : The.Blacklist.S04E16.1080p.WEB-DL.DD5.1.H264-RARBG
Language                                 : English
Default                                  : Yes
Forced                                   : No

Text #1
ID                                       : 3
Format                                   : UTF-8
Codec ID                                 : S_TEXT/UTF8
Codec ID/Info                            : UTF-8 Plain Text
Language                                 : English
Default                                  : Yes
Forced                                   : No

Text #2
ID                                       : 4
Format                                   : UTF-8
Codec ID                                 : S_TEXT/UTF8
Codec ID/Info                            : UTF-8 Plain Text
Title                                    : SDH
Language                                 : English
Default                                  : No
Forced                                   : No



[/mediainfo]
Download
File Container: MKV
Video/Audio Codec: H264 (HIGH) AC3
Video Resolution: 1912x1072
 
 
 
 

Show us some love

15 Responses to "[RR/NF/UL/UR] The Blacklist S04E16 1080p WEB-DL DD5 1 H264-RARBG (1.7GB)"
04/23/17
12:30:23
Admin

RapidRAR re-uploaded with new RAR file(s) (users who couldn't download some parts need to download all parts again).

04/24/17
17:40:15
Admin

RapidRAR re-uploaded with new RAR file(s) (users who couldn't download some parts need to download all parts again).

04/26/17
01:00:25
Admin

RapidRAR re-uploaded with new RAR file(s) (users who couldn't download some parts need to download all parts again).

04/29/17
00:50:13
Admin

RapidRAR re-uploaded with new RAR file(s) (users who couldn't download some parts need to download all parts again).

05/01/17
00:40:15
Admin

RapidRAR re-uploaded with new RAR file(s) (users who couldn't download some parts need to download all parts again).

05/02/17
14:30:18
Admin

RapidRAR re-uploaded with new RAR file(s) (users who couldn't download some parts need to download all parts again).

05/04/17
00:41:26
Admin

RapidRAR re-uploaded with new RAR file(s) (users who couldn't download some parts need to download all parts again).

05/04/17
18:50:19
Admin

RapidRAR re-uploaded with new RAR file(s) (users who couldn't download some parts need to download all parts again).

05/05/17
16:40:42
Admin

RapidRAR re-uploaded with new RAR file(s) (users who couldn't download some parts need to download all parts again).

05/07/17
18:50:15
Admin

RapidRAR re-uploaded with new RAR file(s) (users who couldn't download some parts need to download all parts again).

05/09/17
22:14:19
Admin

RapidRAR re-uploaded with new RAR file(s) (users who couldn't download some parts need to download all parts again).

05/11/17
19:10:08
Admin

RapidRAR re-uploaded with new RAR file(s) (users who couldn't download some parts need to download all parts again).

05/13/17
23:30:48
Admin

RapidRAR re-uploaded with new RAR file(s) (users who couldn't download some parts need to download all parts again).

05/15/17
08:40:46
Admin

RapidRAR re-uploaded with new RAR file(s) (users who couldn't download some parts need to download all parts again).

05/16/17
20:40:07
Admin

RapidRAR re-uploaded with new RAR file(s) (users who couldn't download some parts need to download all parts again).

Leave a Comment

  • (never displayed)
  •  
        Members don't see captchas. Sign Up / Sign In
  • Notify me via email when someone responds.
  • Subscribe my Feeds
  • Facebook

Latest Episodes

Popular Movies and TV Shows

  • American Gods
  • Genius
  • The Handmaid's Tale
  • Pork Pie
  • John Wick: Chapter 2
  • Art Bastard
  • Grantchester
  • The White Princess
  • The Durrells
  • Caligula's Spawn
  • Naked Ambition: An R Rated Look at an X Rated Industry
  • The King's Case Note
  • Doctor Who
  • Fallo!
  • 12 Monkeys
  • Are All Men Pedophiles?
  • Rammstein: Paris
  • Frontier
  • The Northlander
  • Ma vie de Courgette
  • Bloodline
  • Unforgiven
  • Neon Joe, Werewolf Hunter
  • Arrow
  • A Cure for Wellness

Recent Comments

  • ramirez_:

    can you re up links please

  • MahBoff:

    Could this please be uploaded to RapidRar?

  • Vamps: Hey Nice upload, I only ever got the first five in HDTV, the last five were crappier tv caps. thnx
  • JT:

    Can you re-up with clicknupload? uploadrocket already down.

  • errrgh: Complete name : New folder\the.kings.case.note.2017.480p.x264.rmteam.mkv Format ...
  • errrgh: phooey. the media detail IN this movie states English version video and English audio - BUT - it is...
  • uncabrian:

    All these links are dead, please reload on Openload or Clicknupload if possible.

  • x265Addict:

    upload 480p version.

  • x265Addict:

    @admin x265 please, it has no black bars.

  • Lux:

    Clickupload link is broken, could you fix it, please?
    Thank you very much!