Sign Up   |   Sign In  

Announcements

Want to support us?
Buy a RapidRAR account from our resellers:
Buy or renew a NitroFlare account via THIS LINK

04/21

2017

15

Comments

The Blacklist S04E16 720p WEB-DL DD5 1 H264-RARBG
[RR/NF/UL/UR]
Size: 1.3GB mkv H264 (HIGH) / AC3  HD  1280x718

The Blacklist
Click on the image to see full size
[RR/NF/UL/UR] The Blacklist S04E16 720p WEB-DL DD5 1 H264-RARBG (1.3GB) - Snapshot 1
File Information
[URL=http://imagecurl.com/viewer.php?file=60003669321654574449.png][IMG]http://imagecurl.com/images/60003669321654574449_thumb.png[/IMG][/URL]
[URL=http://imagecurl.com/viewer.php?file=66673157130569786457.png][IMG]http://imagecurl.com/images/66673157130569786457_thumb.png[/IMG][/URL]
[URL=http://imagecurl.com/viewer.php?file=81572897500089890032.png][IMG]http://imagecurl.com/images/81572897500089890032_thumb.png[/IMG][/URL]
[URL=http://imagecurl.com/viewer.php?file=76054764565757525798.png][IMG]http://imagecurl.com/images/76054764565757525798_thumb.png[/IMG][/URL]
[URL=http://imagecurl.com/viewer.php?file=78852202915664639510.png][IMG]http://imagecurl.com/images/78852202915664639510_thumb.png[/IMG][/URL]
[URL=http://imagecurl.com/viewer.php?file=87070421047589258414.png][IMG]http://imagecurl.com/images/87070421047589258414_thumb.png[/IMG][/URL]



[mediainfo]
Video
ID                                       : 1
Format                                   : AVC
Format/Info                              : Advanced Video Codec
Format profile                           : [email protected]
Format settings, CABAC                   : No
Format settings, ReFrames                : 2 frames
Codec ID                                 : V_MPEG4/ISO/AVC
Duration                                 : 42mn 58s
Bit rate                                 : 3 964 Kbps
Width                                    : 1 280 pixels
Height                                   : 718 pixels
Display aspect ratio                     : 16:9
Frame rate mode                          : Constant
Frame rate                               : 23.976 (24000/1001) fps
Color space                              : YUV
Chroma subsampling                       : 4:2:0
Bit depth                                : 8 bits
Scan type                                : Progressive
Bits/(Pixel*Frame)                       : 0.180
Stream size                              : 1.19 GiB (89%)
Title                                    : The.Blacklist.S04E16.720p.WEB-DL.DD5.1.H264-RARBG
Language                                 : English
Default                                  : Yes
Forced                                   : No
Color range                              : Limited
Color primaries                          : BT.709
Transfer characteristics                 : BT.709
Matrix coefficients                      : BT.709

Audio
ID                                       : 2
Format                                   : AC-3
Format/Info                              : Audio Coding 3
Mode extension                           : CM (complete main)
Format settings, Endianness              : Big
Codec ID                                 : A_AC3
Duration                                 : 42mn 58s
Bit rate mode                            : Constant
Bit rate                                 : 384 Kbps
Channel(s)                               : 6 channels
Channel positions                        : Front: L C R, Side: L R, LFE
Sampling rate                            : 48.0 KHz
Frame rate                               : 31.250 fps (1536 spf)
Compression mode                         : Lossy
Stream size                              : 118 MiB (9%)
Title                                    : The.Blacklist.S04E16.720p.WEB-DL.DD5.1.H264-RARBG
Language                                 : English
Default                                  : Yes
Forced                                   : No

Text #1
ID                                       : 3
Format                                   : UTF-8
Codec ID                                 : S_TEXT/UTF8
Codec ID/Info                            : UTF-8 Plain Text
Language                                 : English
Default                                  : Yes
Forced                                   : No

Text #2
ID                                       : 4
Format                                   : UTF-8
Codec ID                                 : S_TEXT/UTF8
Codec ID/Info                            : UTF-8 Plain Text
Title                                    : SDH
Language                                 : English
Default                                  : No
Forced                                   : No



[/mediainfo]
Download
File Container: MKV
Video/Audio Codec: H264 (HIGH) AC3
Video Resolution: 1280x718
 
 
 
 

Show us some love

15 Responses to "[RR/NF/UL/UR] The Blacklist S04E16 720p WEB-DL DD5 1 H264-RARBG (1.3GB)"
04/23/17
12:30:23
Admin

RapidRAR re-uploaded with new RAR file(s) (users who couldn't download some parts need to download all parts again).

04/24/17
17:40:15
Admin

RapidRAR re-uploaded with new RAR file(s) (users who couldn't download some parts need to download all parts again).

04/26/17
01:00:25
Admin

RapidRAR re-uploaded with new RAR file(s) (users who couldn't download some parts need to download all parts again).

04/29/17
00:50:13
Admin

RapidRAR re-uploaded with new RAR file(s) (users who couldn't download some parts need to download all parts again).

05/01/17
00:40:15
Admin

RapidRAR re-uploaded with new RAR file(s) (users who couldn't download some parts need to download all parts again).

05/02/17
14:30:18
Admin

RapidRAR re-uploaded with new RAR file(s) (users who couldn't download some parts need to download all parts again).

05/04/17
00:41:25
Admin

RapidRAR re-uploaded with new RAR file(s) (users who couldn't download some parts need to download all parts again).

05/04/17
18:50:19
Admin

RapidRAR re-uploaded with new RAR file(s) (users who couldn't download some parts need to download all parts again).

05/05/17
16:40:40
Admin

RapidRAR re-uploaded with new RAR file(s) (users who couldn't download some parts need to download all parts again).

05/07/17
18:50:15
Admin

RapidRAR re-uploaded with new RAR file(s) (users who couldn't download some parts need to download all parts again).

05/09/17
22:14:19
Admin

RapidRAR re-uploaded with new RAR file(s) (users who couldn't download some parts need to download all parts again).

05/11/17
19:10:08
Admin

RapidRAR re-uploaded with new RAR file(s) (users who couldn't download some parts need to download all parts again).

05/13/17
23:30:48
Admin

RapidRAR re-uploaded with new RAR file(s) (users who couldn't download some parts need to download all parts again).

05/15/17
08:40:46
Admin

RapidRAR re-uploaded with new RAR file(s) (users who couldn't download some parts need to download all parts again).

05/16/17
20:40:06
Admin

RapidRAR re-uploaded with new RAR file(s) (users who couldn't download some parts need to download all parts again).

Leave a Comment

  • (never displayed)
  •  
        Members don't see captchas. Sign Up / Sign In
  • Notify me via email when someone responds.
  • Subscribe my Feeds
  • Facebook

Latest Episodes

Popular Movies and TV Shows

  • The Handmaid's Tale
  • White Gold
  • The Flash
  • The Assignment
  • Aftermath
  • Bonded by Blood 2
  • Prison Break: Sequel
  • The Americans
  • iZombie
  • John Wick: Chapter 2
  • Russian Lolita
  • The Boss Baby
  • Brooklyn Nine-Nine
  • Bull
  • Supergirl
  • Logan
  • Eat Local
  • Night of Something Strange
  • Pretty Little Liars
  • Better Call Saul
  • Gotham
  • The Last Face
  • Beauty and the Beast
  • Grave
  • Twin Peaks

Recent Comments

  • Byala:

    Thanks we already knew that. Episode 8 will air May 31

  • Wrapt:

    Episode 7 and 8 are the same episode just a headsup for all

  • AshRough:

    Thnx.....

  • deka:

    the 2017 BBMAs please....

    thanks

  • Blue Moon: @wentworthy nice try, but you posted this on episode 7 page meaning you're not waiting for ep 7 only...
  • b007:

    Thanks for the upload. Appreciate it!

  • irfan:

    link openload was dead... plz reupload for that

  • David-A-H:

    Thank you

  • maryaam:

    it was episode 7!!!!!

  • celebfan200202020: Wow! The picture quality on this sucks, especially for the size it is. It looks JUST like the video ...