Sign Up   |   Sign In  

Announcements

Want to support us?
Buy a RapidRAR account from our resellers:
Buy or renew a NitroFlare account via THIS LINK

04/21

2017

16

Comments

The Blacklist S04E16 WEB-DL x264-RARBG
[RR/NF/UL/OL/OLw/UR/CU]
Size: 297MB mp4 H264 (HIGH) (AVC1) / AAC (LC) (MP4A) 720x400

The Blacklist
Click on the image to see full size
[RR/NF/UL/OL/OLw/UR/CU] The Blacklist S04E16 WEB-DL x264-RARBG (297MB) - Snapshot 1[RR/NF/UL/OL/OLw/UR/CU] The Blacklist S04E16 WEB-DL x264-RARBG (297MB) - Snapshot 2
File Information
[URL]http://www.imdb.com/title/tt2741602/[/URL]
[screenshots]
[URL=http://imagecurl.com/viewer.php?file=72350954412415251149.png][IMG]http://imagecurl.com/images/72350954412415251149_thumb.png[/IMG][/URL]
[URL=http://imagecurl.com/viewer.php?file=68110257736771760924.png][IMG]http://imagecurl.com/images/68110257736771760924_thumb.png[/IMG][/URL]
[URL=http://imagecurl.com/viewer.php?file=20907093878091320519.png][IMG]http://imagecurl.com/images/20907093878091320519_thumb.png[/IMG][/URL]
[URL=http://imagecurl.com/viewer.php?file=50160557209950675945.png][IMG]http://imagecurl.com/images/50160557209950675945_thumb.png[/IMG][/URL]

[/screenshots]


[mediainfo]
Video
ID                                       : 1
Format                                   : AVC
Format/Info                              : Advanced Video Codec
Format profile                           : [email protected]
Format settings, CABAC                   : Yes
Format settings, ReFrames                : 5 frames
Codec ID                                 : avc1
Codec ID/Info                            : Advanced Video Coding
Duration                                 : 42mn 58s
Bit rate                                 : 833 Kbps
Width                                    : 720 pixels
Height                                   : 400 pixels
Display aspect ratio                     : 16:9
Original display aspect ratio            : 16:9
Frame rate mode                          : Constant
Frame rate                               : 23.976 (24000/1001) fps
Color space                              : YUV
Chroma subsampling                       : 4:2:0
Bit depth                                : 8 bits
Scan type                                : Progressive
Bits/(Pixel*Frame)                       : 0.121
Stream size                              : 256 MiB (86%)
Title                                    : RARBG.COM - The.Blacklist.S04E16.WEB-DL.x264-RARBG
Writing library                          : x264 core 148 r2597M e86f3a1
 Encoding settings                        : cabac=1 / ref=5 / deblock=1:-1:-1 / analyse=0x3:0x113 / me=umh / subme=9 / psy=1 / psy_rd=1.00:0.15 / mixed_ref=1 / me_range=16 / chroma_me=1 / trellis=2 / 8x8dct=1 / cqm=0 / deadz / fast pskip=1 / chroma_qp_offset=-3 / threads=12 / lookahead_threads=1 / sliced_threads=0 / nr=0 / decimate=1 / interlaced=0 / bluray_compat=0 / c / bframes=3 / b_pyramid=2 / b_adapt=2 / b_bias=0 / direct=3 / weightb=1 / open_gop=0 / weightp=2 / keyint=250 / keyint_min=23 / scenecut=40 / intra_refresh=0 / rc_lookahead=50 / rc=crf / mbtree=1 / crf=19.0 / qcomp=0.60 / qpmin=0 / qpmax=69 / qpstep=4 / ip_ratio=1.40 / aq=1:1.00
Language                                 : English
Encoded date                             : UTC 2017-04-21 09:19:25
Tagged date                              : UTC 2017-04-21 09:19:25

Audio
ID                                       : 2
Format                                   : AAC
Format/Info                              : Advanced Audio Codec
Format profile                           : LC
Codec ID                                 : 40
Duration                                 : 42mn 58s
Bit rate mode                            : Constant
Bit rate                                 : 128 Kbps
Channel(s)                               : 2 channels
Channel positions                        : Front: L R
Sampling rate                            : 48.0 KHz
Frame rate                               : 46.875 fps (1024 spf)
Compression mode                         : Lossy
Stream size                              : 39.3 MiB (13%)
Title                                    : RARBG.COM - The.Blacklist.S04E16.WEB-DL.x264-RARBG
Language                                 : English
Default                                  : Yes
Alternate group                          : 1
Encoded date                             : UTC 2017-04-21 09:19:25
Tagged date                              : UTC 2017-04-21 09:19:25



[/mediainfo]
Download
File Container: MP4
Video/Audio Codec: H264 (HIGH) (AVC1) AAC (LC) (MP4A)
Video Resolution: 720x400
 
 
 
 
 
 
Watch Online [MP4]

Show us some love

16 Responses to "[RR/NF/UL/OL/OLw/UR/CU] The Blacklist S04E16 WEB-DL x264-RARBG (297MB)"
04/23/17
12:30:23
Admin

RapidRAR re-uploaded with new RAR file(s) (users who couldn't download some parts need to download all parts again).

04/24/17
17:40:15
Admin

RapidRAR re-uploaded with new RAR file(s) (users who couldn't download some parts need to download all parts again).

04/26/17
01:00:25
Admin

RapidRAR re-uploaded with new RAR file(s) (users who couldn't download some parts need to download all parts again).

04/29/17
00:50:13
Admin

RapidRAR re-uploaded with new RAR file(s) (users who couldn't download some parts need to download all parts again).

05/01/17
00:40:15
Admin

RapidRAR re-uploaded with new RAR file(s) (users who couldn't download some parts need to download all parts again).

05/02/17
14:30:18
Admin

RapidRAR re-uploaded with new RAR file(s) (users who couldn't download some parts need to download all parts again).

05/04/17
00:41:33
Admin

RapidRAR re-uploaded with new RAR file(s) (users who couldn't download some parts need to download all parts again).

05/04/17
18:50:19
Admin

RapidRAR re-uploaded with new RAR file(s) (users who couldn't download some parts need to download all parts again).

05/05/17
16:40:49
Admin

RapidRAR re-uploaded with new RAR file(s) (users who couldn't download some parts need to download all parts again).

05/07/17
18:50:15
Admin

RapidRAR re-uploaded with new RAR file(s) (users who couldn't download some parts need to download all parts again).

05/09/17
22:14:19
Admin

RapidRAR re-uploaded with new RAR file(s) (users who couldn't download some parts need to download all parts again).

05/11/17
19:10:09
Admin

RapidRAR re-uploaded with new RAR file(s) (users who couldn't download some parts need to download all parts again).

05/13/17
23:30:48
Admin

RapidRAR re-uploaded with new RAR file(s) (users who couldn't download some parts need to download all parts again).

05/15/17
08:40:47
Admin

RapidRAR re-uploaded with new RAR file(s) (users who couldn't download some parts need to download all parts again).

05/16/17
20:40:28
Admin

RapidRAR re-uploaded with new RAR file(s) (users who couldn't download some parts need to download all parts again).

05/31/17
22:50:48
Admin

RapidRAR re-uploaded with new RAR file(s) (users who couldn't download some parts need to download all parts again).

Leave a Comment

  • (never displayed)
  •  
        Members don't see captchas. Sign Up / Sign In
  • Notify me via email when someone responds.
  • Subscribe my Feeds
  • Facebook

Latest Episodes

Popular Movies and TV Shows

  • Suits
  • Blood Drive
  • Operation Dunkirk
  • Salvation
  • Spider-Man: Homecoming
  • Inran naru ichizoku: Dai-ni-shô - zetsurin no hate ni
  • Snowfall
  • Queen Sugar
  • Game of Thrones
  • King Arthur: Legend of the Sword
  • Shot Caller
  • Need for Speed
  • Younger
  • I'm Sorry
  • Widziadlo
  • Pulse
  • Kuudes kerta
  • Mickey One
  • Shooter
  • Will
  • American Dad!
  • Awaken the Shadowman
  • Snatched
  • Hunter's Prayer
  • Preacher

Recent Comments