Sign Up   |   Sign In  
The RookiePaulineFBI: Most WantedRachel Feinstein: Big GuyBoy Kills WorldA Million DaysDark MatterThe Good DoctorWill TrentThe Fall GuySteelMission of the Shark: The Saga of the U.S.S. IndianapolisThe Cleaning LadyFBIFBI: InternationalMoonedThe Manchurian CandidateVisionsWWE NXTWWE RawUnder the BridgeExpend4blesSeize Them!8 Found DeadThe Simpsons

Announcements

04/10

2024

1

Comments

The Cleaning Lady US S03E06 El Reloj 1080p AMZN WEB-DL DDP5 1 H 264-FLUX
[RR/NF/CU]
Size: 1.9GB mkv H264 (HIGH) / EAC3  HD  1920x960

The Cleaning Lady
File Information
[img]http://lookpic.com/cdn/i2/t/0410202406441802-1.jpg[/img]
[img]http://lookpic.com/cdn/i2/t/0410202406441802-2.jpg[/img]
[img]http://lookpic.com/cdn/i2/t/0410202406441802-3.jpg[/img]

General
Unique ID                                : 70423042834484554743491371593129337518 (0x34FAFC1519ED0A534A0D317F9AAD22AE)
Complete name                            : The Cleaning Lady US S03E06 El Reloj 1080p AMZN WEB-DL DDP5 1 H 264-FLUX.mkv
Format                                   : Matroska
Format version                           : Version 4
File size                                : 1.90 GiB
Duration                                 : 43 min 48 s
Overall bit rate                         : 6 194 kb/s
Frame rate                               : 23.976 FPS
Writing application                      : mkvmerge v82.0 ('I'm The President') 64-bit
Writing library                          : libebml v1.4.5 + libmatroska v1.7.1

Video
ID                                       : 1
Format                                   : AVC
Format/Info                              : Advanced Video Codec
Format profile                           : High@L4
Format settings                          : CABAC / 4 Ref Frames
Format settings, CABAC                   : Yes
Format settings, Reference frames        : 4 frames
Codec ID                                 : V_MPEG4/ISO/AVC
Duration                                 : 43 min 48 s
Bit rate mode                            : Constant
Bit rate                                 : 5 552 kb/s
Nominal bit rate                         : 10 000 kb/s
Width                                    : 1 920 pixels
Height                                   : 960 pixels
Display aspect ratio                     : 2.000
Frame rate mode                          : Constant
Frame rate                               : 23.976 (24000/1001) FPS
Color space                              : YUV
Chroma subsampling                       : 4:2:0
Bit depth                                : 8 bits
Scan type                                : Progressive
Bits/(Pixel*Frame)                       : 0.126
Stream size                              : 1.70 GiB (90%)
Language                                 : English
Default                                  : Yes
Forced                                   : No
Color range                              : Limited
Color primaries                          : BT.709
Transfer characteristics                 : BT.709
Matrix coefficients                      : BT.709

Audio
ID                                       : 2
Format                                   : E-AC-3
Format/Info                              : Enhanced AC-3
Commercial name                          : Dolby Digital Plus
Codec ID                                 : A_EAC3
Duration                                 : 43 min 48 s
Bit rate mode                            : Constant
Bit rate                                 : 640 kb/s
Channel(s)                               : 6 channels
Channel layout                           : L R C LFE Ls Rs
Sampling rate                            : 48.0 kHz
Frame rate                               : 31.250 FPS (1536 SPF)
Compression mode                         : Lossy
Stream size                              : 201 MiB (10%)
Language                                 : English
Service kind                             : Complete Main
Default                                  : Yes
Forced                                   : No

Text #1
ID                                       : 3
Format                                   : UTF-8
Codec ID                                 : S_TEXT/UTF8
Codec ID/Info                            : UTF-8 Plain Text
Duration                                 : 42 min 58 s
Bit rate                                 : 79 b/s
Frame rate                               : 0.309 FPS
Count of elements                        : 796
Stream size                              : 24.9 KiB (0%)
Language                                 : English (US)
Default                                  : No
Forced                                   : No

Text #2
ID                                       : 4
Format                                   : UTF-8
Codec ID                                 : S_TEXT/UTF8
Codec ID/Info                            : UTF-8 Plain Text
Duration                                 : 43 min 39 s
Bit rate                                 : 84 b/s
Frame rate                               : 0.348 FPS
Count of elements                        : 913
Stream size                              : 27.2 KiB (0%)
Title                                    : SDH
Language                                 : English (US)
Default                                  : No
Forced                                   : No

Menu
00:00:00.000                             : en:Scene 1
00:43:43.000                             : en:Outro



Download
File Container: MKV
Video/Audio Codec: H264 (HIGH) EAC3
Video Resolution: 1920x960

1 Response to "[RR/NF/CU] The Cleaning Lady US S03E06 El Reloj 1080p AMZN WEB-DL DDP5 1 H 264-FLUX (1.9GB)"
04/10/24
13:09:15
ReadyPlayerOne

Thank You

Please Login to post a comment.
If you don't have any account, please Register.
  • Subscribe my Feeds
  • Facebook
Encoding Queue:  x264  x265

Latest Episodes

Popular Movies and TV Shows

  • The Rookie
  • Pauline
  • FBI: Most Wanted
  • Rachel Feinstein: Big Guy
  • Boy Kills World
  • A Million Days
  • Dark Matter
  • The Good Doctor
  • Will Trent
  • The Fall Guy
  • Steel
  • Mission of the Shark: The Saga of the U.S.S. Indianapolis
  • The Cleaning Lady
  • FBI
  • FBI: International
  • Mooned
  • The Manchurian Candidate
  • Visions
  • WWE NXT
  • WWE Raw
  • Under the Bridge
  • Expend4bles
  • Seize Them!
  • 8 Found Dead
  • The Simpsons

Recent Comments

  • Geependo:

    All links are dead

  • OldMovies:

    Has Czech subtitles but not English. Need forced English for the foreign language parts.

  • PROFessorMorrynarty: Would it be possible to upload 'Lego masters Australia' Series 6 Episode 6 Please? It's the only one...
  • mentalityx:

    Thx mate.

  • Bud: Is the search engine down for everyone, or just me? It just says 'You're forbidden!' whenever I lo...
  • 23d1:

    not episode 4 it is episode 3

  • 23d1:

    not episode 4 it is episode 3

  • 23d1:

    not episode 4 it is episode 3

  • 23d1:

    not episode 4 it is episode 3

  • aaroz88:

    Trimas!!

  • mptoo: I don't often ask this, infact this would be the first time, but I don't suppose there is any chance...

Archives