Sign Up   |   Sign In  
WalkerMacGyverThe Fall GuyBoys on Film 21: Beautiful SecretRace Across the WorldNo Country for Old MenFuriosa: A Mad Max SagaThe Feeling That the Time for Doing Something Has PassedAutoeroticUnder the BridgeWWE NXTPanchayatDark MatterMasterChef AustraliaThe Big Door PrizeNevada SmithCivil War12 StrongLootWWE RawCSI: VegasYour Mother's SonMahal ko ang mahal moThe First OmenThe Daily Show

Announcements

04/10

2024

1

Comments

The Cleaning Lady US S03E06 El Reloj 720p AMZN WEB-DL DDP5 1 H 264-FLUX
[RR/NF/CU]
Size: 1GB mkv H264 (HIGH) / EAC3  HD  1280x640

The Cleaning Lady
File Information
[img]http://lookpic.com/cdn/i2/t/0410202406443188-1.jpg[/img]
[img]http://lookpic.com/cdn/i2/t/0410202406443188-2.jpg[/img]
[img]http://lookpic.com/cdn/i2/t/0410202406443188-3.jpg[/img]

General
Unique ID                                : 254161990840792693452264020936647443105 (0xBF35D1A2ADD7E8D99A20E58CA9D302A1)
Complete name                            : The Cleaning Lady US S03E06 El Reloj 720p AMZN WEB-DL DDP5 1 H 264-FLUX.mkv
Format                                   : Matroska
Format version                           : Version 4
File size                                : 1.04 GiB
Duration                                 : 43 min 48 s
Overall bit rate                         : 3 390 kb/s
Frame rate                               : 23.976 FPS
Writing application                      : mkvmerge v82.0 ('I'm The President') 64-bit
Writing library                          : libebml v1.4.5 + libmatroska v1.7.1

Video
ID                                       : 1
Format                                   : AVC
Format/Info                              : Advanced Video Codec
Format profile                           : High@L3.1
Format settings                          : CABAC / 4 Ref Frames
Format settings, CABAC                   : Yes
Format settings, Reference frames        : 4 frames
Codec ID                                 : V_MPEG4/ISO/AVC
Duration                                 : 43 min 48 s
Bit rate mode                            : Constant
Bit rate                                 : 2 748 kb/s
Nominal bit rate                         : 6 000 kb/s
Width                                    : 1 280 pixels
Height                                   : 640 pixels
Display aspect ratio                     : 2.000
Frame rate mode                          : Constant
Frame rate                               : 23.976 (24000/1001) FPS
Color space                              : YUV
Chroma subsampling                       : 4:2:0
Bit depth                                : 8 bits
Scan type                                : Progressive
Bits/(Pixel*Frame)                       : 0.140
Stream size                              : 861 MiB (81%)
Language                                 : English
Default                                  : Yes
Forced                                   : No
Color range                              : Limited
Color primaries                          : BT.709
Transfer characteristics                 : BT.709
Matrix coefficients                      : BT.709

Audio
ID                                       : 2
Format                                   : E-AC-3
Format/Info                              : Enhanced AC-3
Commercial name                          : Dolby Digital Plus
Codec ID                                 : A_EAC3
Duration                                 : 43 min 48 s
Bit rate mode                            : Constant
Bit rate                                 : 640 kb/s
Channel(s)                               : 6 channels
Channel layout                           : L R C LFE Ls Rs
Sampling rate                            : 48.0 kHz
Frame rate                               : 31.250 FPS (1536 SPF)
Compression mode                         : Lossy
Stream size                              : 201 MiB (19%)
Language                                 : English
Service kind                             : Complete Main
Default                                  : Yes
Forced                                   : No

Text #1
ID                                       : 3
Format                                   : UTF-8
Codec ID                                 : S_TEXT/UTF8
Codec ID/Info                            : UTF-8 Plain Text
Duration                                 : 42 min 58 s
Bit rate                                 : 79 b/s
Frame rate                               : 0.309 FPS
Count of elements                        : 796
Stream size                              : 24.9 KiB (0%)
Language                                 : English (US)
Default                                  : No
Forced                                   : No

Text #2
ID                                       : 4
Format                                   : UTF-8
Codec ID                                 : S_TEXT/UTF8
Codec ID/Info                            : UTF-8 Plain Text
Duration                                 : 43 min 39 s
Bit rate                                 : 84 b/s
Frame rate                               : 0.348 FPS
Count of elements                        : 913
Stream size                              : 27.2 KiB (0%)
Title                                    : SDH
Language                                 : English (US)
Default                                  : No
Forced                                   : No

Menu
00:00:00.000                             : en:Scene 1
00:43:43.000                             : en:Outro



Download
File Container: MKV
Video/Audio Codec: H264 (HIGH) EAC3
Video Resolution: 1280x640

1 Response to "[RR/NF/CU] The Cleaning Lady US S03E06 El Reloj 720p AMZN WEB-DL DDP5 1 H 264-FLUX (1GB)"
04/10/24
13:08:49
ReadyPlayerOne

Thank You

Please Login to post a comment.
If you don't have any account, please Register.
  • Subscribe my Feeds
  • Facebook
Encoding Queue:  x264  x265

Latest Episodes

Popular Movies and TV Shows

  • Walker
  • MacGyver
  • The Fall Guy
  • Boys on Film 21: Beautiful Secret
  • Race Across the World
  • No Country for Old Men
  • Furiosa: A Mad Max Saga
  • The Feeling That the Time for Doing Something Has Passed
  • Autoerotic
  • Under the Bridge
  • WWE NXT
  • Panchayat
  • Dark Matter
  • MasterChef Australia
  • The Big Door Prize
  • Nevada Smith
  • Civil War
  • 12 Strong
  • Loot
  • WWE Raw
  • CSI: Vegas
  • Your Mother's Son
  • Mahal ko ang mahal mo
  • The First Omen
  • The Daily Show

Recent Comments

  • dma: @admin It appears that ClickNupload is no longer usable for free users. Don't know about paying use...
  • Bionicone: Yea this is not the Bluray version. This is another Cam. This thing should be taken down. Do not dow...
  • spiderspinner: Bud:The same thing started happening to me last night and I've used four different browsers yet they...
  • timt:

    Junk, CAM

  • upx:

    WARNING:This is NOT a BluRay rip. It's a CAMrip.

  • Bud: Is clicknupload borked for anyone else now, or is it just me? In recent months it's only worked in...
  • mentalityx:

    Rad bloke!

  • waanaabe: I hope someone follows through with the rest! also, did not check every post but hoping future ones ...
  • Demonz:

    Holy popups ClickNupload

  • rambaldi70:

    this release sort cut! 1h33m12 !
    imdb - 1h 54m

  • rambaldi70: This release the first bad source 1h33m12 - stop the play this release sort cut! 1h33m12 ! imdb - 1h...
  • rambaldi70:

    this release sort cut! 1h33m12 !
    imdb - 1h 54m

  • dilliboy: Will we ever see these RMTeam releases ever again? I hope they're not lost to the digital graveyard ...
  • kang:

    NitroFlare's link is missing...

  • kang:

    NitroFlare's link is missing...

  • tchamast:

    @Wrapt

    I've seen that too, don't know why.

  • Rafi85: Hi thx for the 14th season. Is it possible to reupload some episodes plz they were removed. These ar...
  • KubrickFan:

    Any possibility of a fresh link for this?

  • GubeShitemon: This is a different movie to the artwork version. Not the Dylan McDermott film but the Ben Affleck f...
  • drorsabi1:

    @admin
    Please add "My Adventures With Superman Season 2 "

Archives