Sign Up   |   Sign In  
Dune: Part TwoThe Great NorthSullivan's CrossingGrimsburgTo Die ForIsland of Lemurs: MadagascarGuardians of the Galaxy Vol. 3Beacon 23The ChannelTrinket BoxHazbin HotelCold JusticeShogunParishSaturday Night LiveThe Taste of ThingsLegend of the Lost LocketFantastic Four: Rise of the Silver SurferFalloutGrey's AnatomyImmoral WomenS.W.A.T.WillowScrambledFBI

Announcements

02/19

2024

1

Comments

The Equalizer 2021 S04E01 Truth for a Truth 720p AMZN WEB-DL DDP5 1 H 264-NTb
[RR/NF/CU]
Size: 1.2GB mkv H264 (HIGH) / EAC3  HD  1280x720

The Equalizer
File Information
[img]http://lookpic.com/cdn/i2/t/0219202408134844-1.jpg[/img]
[img]http://lookpic.com/cdn/i2/t/0219202408134844-2.jpg[/img]
[img]http://lookpic.com/cdn/i2/t/0219202408134844-3.jpg[/img]

General
Unique ID                                : 305851624926550821981448508873452187381 (0xE618E15B3EFB2D4D8B7A0896300E6EF5)
Complete name                            : The.Equalizer.2021.S04E01.Truth.for.a.Truth.720p.AMZN.WEB-DL.DDP5.1.H.264-NTb.mkv
Format                                   : Matroska
Format version                           : Version 4
File size                                : 1.24 GiB
Duration                                 : 42 min 51 s
Overall bit rate                         : 4 151 kb/s
Frame rate                               : 23.976 FPS
Writing application                      : mkvmerge v81.0 ('Milliontown') 64-bit
Writing library                          : libebml v1.4.4 + libmatroska v1.7.1

Video
ID                                       : 1
Format                                   : AVC
Format/Info                              : Advanced Video Codec
Format profile                           : High@L3.1
Format settings                          : CABAC / 4 Ref Frames
Format settings, CABAC                   : Yes
Format settings, Reference frames        : 4 frames
Codec ID                                 : V_MPEG4/ISO/AVC
Duration                                 : 42 min 51 s
Bit rate mode                            : Constant
Bit rate                                 : 3 509 kb/s
Nominal bit rate                         : 4 000 kb/s
Width                                    : 1 280 pixels
Height                                   : 720 pixels
Display aspect ratio                     : 16:9
Frame rate mode                          : Constant
Frame rate                               : 23.976 (24000/1001) FPS
Color space                              : YUV
Chroma subsampling                       : 4:2:0
Bit depth                                : 8 bits
Scan type                                : Progressive
Bits/(Pixel*Frame)                       : 0.159
Stream size                              : 1.05 GiB (85%)
Default                                  : Yes
Forced                                   : No
Color range                              : Limited
Color primaries                          : BT.709
Transfer characteristics                 : BT.709
Matrix coefficients                      : BT.709

Audio
ID                                       : 2
Format                                   : E-AC-3
Format/Info                              : Enhanced AC-3
Commercial name                          : Dolby Digital Plus
Codec ID                                 : A_EAC3
Duration                                 : 42 min 51 s
Bit rate mode                            : Constant
Bit rate                                 : 640 kb/s
Channel(s)                               : 6 channels
Channel layout                           : L R C LFE Ls Rs
Sampling rate                            : 48.0 kHz
Frame rate                               : 31.250 FPS (1536 SPF)
Compression mode                         : Lossy
Stream size                              : 196 MiB (15%)
Language                                 : English (US)
Service kind                             : Complete Main
Default                                  : Yes
Forced                                   : No

Text #1
ID                                       : 3
Format                                   : UTF-8
Codec ID                                 : S_TEXT/UTF8
Codec ID/Info                            : UTF-8 Plain Text
Duration                                 : 42 min 33 s
Bit rate                                 : 87 b/s
Frame rate                               : 0.360 FPS
Count of elements                        : 919
Stream size                              : 27.4 KiB (0%)
Language                                 : English (US)
Default                                  : No
Forced                                   : No

Text #2
ID                                       : 4
Format                                   : UTF-8
Codec ID                                 : S_TEXT/UTF8
Codec ID/Info                            : UTF-8 Plain Text
Duration                                 : 42 min 33 s
Bit rate                                 : 91 b/s
Frame rate                               : 0.380 FPS
Count of elements                        : 970
Stream size                              : 28.6 KiB (0%)
Title                                    : SDH
Language                                 : English (US)
Default                                  : No
Forced                                   : No



Download
File Container: MKV
Video/Audio Codec: H264 (HIGH) EAC3
Video Resolution: 1280x720

1 Response to "[RR/NF/CU] The Equalizer 2021 S04E01 Truth for a Truth 720p AMZN WEB-DL DDP5 1 H 264-NTb (1.2GB)"
02/19/24
20:00:18
ReadyPlayerOne

Thank You

Please Login to post a comment.
If you don't have any account, please Register.
  • Subscribe my Feeds
  • Facebook
Encoding Queue:  x264  x265

Latest Episodes

Popular Movies and TV Shows

  • Dune: Part Two
  • The Great North
  • Sullivan's Crossing
  • Grimsburg
  • To Die For
  • Island of Lemurs: Madagascar
  • Guardians of the Galaxy Vol. 3
  • Beacon 23
  • The Channel
  • Trinket Box
  • Hazbin Hotel
  • Cold Justice
  • Shogun
  • Parish
  • Saturday Night Live
  • The Taste of Things
  • Legend of the Lost Locket
  • Fantastic Four: Rise of the Silver Surfer
  • Fallout
  • Grey's Anatomy
  • Immoral Women
  • S.W.A.T.
  • Willow
  • Scrambled
  • FBI

Recent Comments

  • mentalityx:

    Rad bloke

  • DownloadHostInspector:

    so far these RMTeam uploads always have a working link. DownloadHostInspector approved!

  • DownloadHostInspector:

    ah yes, this upload has a host that works. clicknupload. DownloadHostInspector approved!

  • DownloadHostInspector: Why are all the download hosts trash? none of them let you download it
  • Qua4ratic:

    clicknupload link plz

  • ppoo:

    Please, can you add "Real Time with Bill Maher S22E11" ??

  • theahtisham:

    Kindly upload Ep. 3 and 4 as well.

  • Kudzu: Update on sound issue, File's codec info says stereo but is only a the left channel If I switch i...
  • Admin:

    kang
    Getting error while encoding, sorry

Archives