Sign Up   |   Sign In  
ShogunA Story About a Grandpa and Grandma Who Returned Back to Their YouthSex Before the InternetTenetFantastic Four: Rise of the Silver SurferThe Taste of ThingsBeacon 23ParishNinja KamuiSin City: A Dame to Kill ForScrambledLegend of the Lost LocketSaturday Night LiveImmoral WomenWillowS.W.A.T.Riddle of FireBlue BloodsFalloutGrey's AnatomyStar Trek: DiscoveryPacific Rim: UprisingWhiplashT2 TrainspottingSugar

Announcements

02/26

2024

1

Comments

The Equalizer 2021 S04E02 Full Throttle 1080p AMZN WEB-DL DDP5 1 H 264-NTb
[RR/NF]
Size: 2.9GB mkv H264 (HIGH) / EAC3  HD  1920x1080

The Equalizer
File Information
[img]http://lookpic.com/cdn/i2/t/0226202400502310-1.jpg[/img]
[img]http://lookpic.com/cdn/i2/t/0226202400502310-2.jpg[/img]
[img]http://lookpic.com/cdn/i2/t/0226202400502310-3.jpg[/img]

General
Unique ID                                : 314532496797821242715282749457695350841 (0xECA0C162535EFDBEB8A6C7EACEE9A039)
Complete name                            : The.Equalizer.2021.S04E02.Full.Throttle.1080p.AMZN.WEB-DL.DDP5.1.H.264-NTb.mkv
Format                                   : Matroska
Format version                           : Version 4
File size                                : 2.87 GiB
Duration                                 : 43 min 12 s
Overall bit rate                         : 9 503 kb/s
Frame rate                               : 23.976 FPS
Writing application                      : mkvmerge v81.0 ('Milliontown') 64-bit
Writing library                          : libebml v1.4.4 + libmatroska v1.7.1

Video
ID                                       : 1
Format                                   : AVC
Format/Info                              : Advanced Video Codec
Format profile                           : High@L4
Format settings                          : CABAC / 4 Ref Frames
Format settings, CABAC                   : Yes
Format settings, Reference frames        : 4 frames
Codec ID                                 : V_MPEG4/ISO/AVC
Duration                                 : 43 min 12 s
Bit rate mode                            : Constant
Bit rate                                 : 8 860 kb/s
Nominal bit rate                         : 10 000 kb/s
Width                                    : 1 920 pixels
Height                                   : 1 080 pixels
Display aspect ratio                     : 16:9
Frame rate mode                          : Constant
Frame rate                               : 23.976 (24000/1001) FPS
Color space                              : YUV
Chroma subsampling                       : 4:2:0
Bit depth                                : 8 bits
Scan type                                : Progressive
Bits/(Pixel*Frame)                       : 0.178
Stream size                              : 2.67 GiB (93%)
Default                                  : Yes
Forced                                   : No
Color range                              : Limited
Color primaries                          : BT.709
Transfer characteristics                 : BT.709
Matrix coefficients                      : BT.709

Audio
ID                                       : 2
Format                                   : E-AC-3
Format/Info                              : Enhanced AC-3
Commercial name                          : Dolby Digital Plus
Codec ID                                 : A_EAC3
Duration                                 : 43 min 12 s
Bit rate mode                            : Constant
Bit rate                                 : 640 kb/s
Channel(s)                               : 6 channels
Channel layout                           : L R C LFE Ls Rs
Sampling rate                            : 48.0 kHz
Frame rate                               : 31.250 FPS (1536 SPF)
Compression mode                         : Lossy
Stream size                              : 198 MiB (7%)
Language                                 : English (US)
Service kind                             : Complete Main
Default                                  : Yes
Forced                                   : No

Text #1
ID                                       : 3
Format                                   : UTF-8
Codec ID                                 : S_TEXT/UTF8
Codec ID/Info                            : UTF-8 Plain Text
Duration                                 : 42 min 41 s
Bit rate                                 : 94 b/s
Frame rate                               : 0.374 FPS
Count of elements                        : 957
Stream size                              : 29.6 KiB (0%)
Language                                 : English (US)
Default                                  : No
Forced                                   : No

Text #2
ID                                       : 4
Format                                   : UTF-8
Codec ID                                 : S_TEXT/UTF8
Codec ID/Info                            : UTF-8 Plain Text
Duration                                 : 42 min 41 s
Bit rate                                 : 98 b/s
Frame rate                               : 0.395 FPS
Count of elements                        : 1011
Stream size                              : 30.9 KiB (0%)
Title                                    : SDH
Language                                 : English (US)
Default                                  : No
Forced                                   : No



Download
File Container: MKV
Video/Audio Codec: H264 (HIGH) EAC3
Video Resolution: 1920x1080

1 Response to "[RR/NF] The Equalizer 2021 S04E02 Full Throttle 1080p AMZN WEB-DL DDP5 1 H 264-NTb (2.9GB)"
02/26/24
13:05:43
ReadyPlayerOne

Thank You

Please Login to post a comment.
If you don't have any account, please Register.
  • Subscribe my Feeds
  • Facebook
Encoding Queue:  x264  x265

Latest Episodes

Popular Movies and TV Shows

  • Shogun
  • A Story About a Grandpa and Grandma Who Returned Back to Their Youth
  • Sex Before the Internet
  • Tenet
  • Fantastic Four: Rise of the Silver Surfer
  • The Taste of Things
  • Beacon 23
  • Parish
  • Ninja Kamui
  • Sin City: A Dame to Kill For
  • Scrambled
  • Legend of the Lost Locket
  • Saturday Night Live
  • Immoral Women
  • Willow
  • S.W.A.T.
  • Riddle of Fire
  • Blue Bloods
  • Fallout
  • Grey's Anatomy
  • Star Trek: Discovery
  • Pacific Rim: Uprising
  • Whiplash
  • T2 Trainspotting
  • Sugar

Recent Comments

  • mentalityx:

    Rad bloke

  • DownloadHostInspector:

    so far these RMTeam uploads always have a working link. DownloadHostInspector approved!

  • DownloadHostInspector:

    ah yes, this upload has a host that works. clicknupload. DownloadHostInspector approved!

  • DownloadHostInspector: Why are all the download hosts trash? none of them let you download it
  • Qua4ratic:

    clicknupload link plz

  • ppoo:

    Please, can you add "Real Time with Bill Maher S22E11" ??

  • theahtisham:

    Kindly upload Ep. 3 and 4 as well.

  • Kudzu: Update on sound issue, File's codec info says stereo but is only a the left channel If I switch i...
  • Admin:

    kang
    Getting error while encoding, sorry

Archives