Sign Up   |   Sign In  
Young SheldonElsbethLaw & Order Toronto: Criminal IntentThe ReaderBarbarianScreamGhostsAmerican Horror StoryLaw & OrderYou Were Never Really HereLie with MeGreen LanternStar Trek: DiscoveryThe Three Musketeers - Part II: MiladyFamily GuyGhostbusters: Frozen EmpireChuckyGodzilla x Kong: The New EmpireWalkerAnimal ControlThe Bold and the BeautifulThe InseparablesJokerLa margeFBI

Announcements

02/26

2024

No

Comments

The Equalizer 2021 S04E02 Full Throttle 720p AMZN WEB-DL DDP5 1 H 264-NTb
[RR/NF/CU]
Size: 1.3GB mkv H264 (HIGH) / EAC3  HD  1280x720

The Equalizer
File Information
[img]http://lookpic.com/cdn/i2/t/0226202400182451-1.jpg[/img]
[img]http://lookpic.com/cdn/i2/t/0226202400182451-2.jpg[/img]
[img]http://lookpic.com/cdn/i2/t/0226202400182451-3.jpg[/img]

General
Unique ID                                : 199036143644653812445710615750142600107 (0x95BCF78727D12597727B0F37A86023AB)
Complete name                            : The.Equalizer.2021.S04E02.Full.Throttle.720p.AMZN.WEB-DL.DDP5.1.H.264-NTb.mkv
Format                                   : Matroska
Format version                           : Version 4
File size                                : 1.25 GiB
Duration                                 : 43 min 12 s
Overall bit rate                         : 4 149 kb/s
Frame rate                               : 23.976 FPS
Writing application                      : mkvmerge v81.0 ('Milliontown') 64-bit
Writing library                          : libebml v1.4.4 + libmatroska v1.7.1

Video
ID                                       : 1
Format                                   : AVC
Format/Info                              : Advanced Video Codec
Format profile                           : High@L3.1
Format settings                          : CABAC / 4 Ref Frames
Format settings, CABAC                   : Yes
Format settings, Reference frames        : 4 frames
Codec ID                                 : V_MPEG4/ISO/AVC
Duration                                 : 43 min 12 s
Bit rate mode                            : Constant
Bit rate                                 : 3 507 kb/s
Nominal bit rate                         : 4 000 kb/s
Width                                    : 1 280 pixels
Height                                   : 720 pixels
Display aspect ratio                     : 16:9
Frame rate mode                          : Constant
Frame rate                               : 23.976 (24000/1001) FPS
Color space                              : YUV
Chroma subsampling                       : 4:2:0
Bit depth                                : 8 bits
Scan type                                : Progressive
Bits/(Pixel*Frame)                       : 0.159
Stream size                              : 1.06 GiB (85%)
Default                                  : Yes
Forced                                   : No
Color range                              : Limited
Color primaries                          : BT.709
Transfer characteristics                 : BT.709
Matrix coefficients                      : BT.709

Audio
ID                                       : 2
Format                                   : E-AC-3
Format/Info                              : Enhanced AC-3
Commercial name                          : Dolby Digital Plus
Codec ID                                 : A_EAC3
Duration                                 : 43 min 12 s
Bit rate mode                            : Constant
Bit rate                                 : 640 kb/s
Channel(s)                               : 6 channels
Channel layout                           : L R C LFE Ls Rs
Sampling rate                            : 48.0 kHz
Frame rate                               : 31.250 FPS (1536 SPF)
Compression mode                         : Lossy
Stream size                              : 198 MiB (15%)
Language                                 : English (US)
Service kind                             : Complete Main
Default                                  : Yes
Forced                                   : No

Text #1
ID                                       : 3
Format                                   : UTF-8
Codec ID                                 : S_TEXT/UTF8
Codec ID/Info                            : UTF-8 Plain Text
Duration                                 : 42 min 41 s
Bit rate                                 : 94 b/s
Frame rate                               : 0.374 FPS
Count of elements                        : 957
Stream size                              : 29.6 KiB (0%)
Language                                 : English (US)
Default                                  : No
Forced                                   : No

Text #2
ID                                       : 4
Format                                   : UTF-8
Codec ID                                 : S_TEXT/UTF8
Codec ID/Info                            : UTF-8 Plain Text
Duration                                 : 42 min 41 s
Bit rate                                 : 98 b/s
Frame rate                               : 0.395 FPS
Count of elements                        : 1011
Stream size                              : 30.9 KiB (0%)
Title                                    : SDH
Language                                 : English (US)
Default                                  : No
Forced                                   : No



Download
File Container: MKV
Video/Audio Codec: H264 (HIGH) EAC3
Video Resolution: 1280x720
Please Login to post a comment.
If you don't have any account, please Register.
  • Subscribe my Feeds
  • Facebook
Encoding Queue:  x264  x265

Latest Episodes

Popular Movies and TV Shows

  • Young Sheldon
  • Elsbeth
  • Law & Order Toronto: Criminal Intent
  • The Reader
  • Barbarian
  • Scream
  • Ghosts
  • American Horror Story
  • Law & Order
  • You Were Never Really Here
  • Lie with Me
  • Green Lantern
  • Star Trek: Discovery
  • The Three Musketeers - Part II: Milady
  • Family Guy
  • Ghostbusters: Frozen Empire
  • Chucky
  • Godzilla x Kong: The New Empire
  • Walker
  • Animal Control
  • The Bold and the Beautiful
  • The Inseparables
  • Joker
  • La marge
  • FBI

Recent Comments

  • Draveren: hi. can we solve this "server under maintenance" stuff, already? if back in the day i'd ke...
  • Majnon: The links are dead. Please re-upload
  • timt:

    Anyone have the movie "Shoot" (1976) to post?

  • Nightshade: Hey, it appears at least the RMTeam separate episodes and ION's packs for the first two seasons of t...
  • Bigfishguy:

    There's no free option to download this video. Can someone please upload it to clicknupload?

  • timt:

    Junk

  • timt:

    CAM Audio

  • timt:

    Hard Coded SUMS! Russian, I Think.

  • ubirattan:

    Mandem um Fikper, por favor.

  • kellym2: No answer yet for my query - why all the episodes "server under maintenance" on some episo...
  • Majnon:

    Rapidrar links are dead :(

  • Rake:

    Loads of "Server is under maintenance" with RR theese days...

  • kellym2: Why am I getting "Server is in maintenance mode" on some episodes of a series and not on o...
  • Bud:

    Are you ever going to put up Thursday's episode with Liev Schreiber?

Archives