Sign Up   |   Sign In  

Announcements

Want to support us?
Buy a RapidRAR account from our resellers:
Buy or renew a NitroFlare account via THIS LINK

12/15

2012

No

Comments

The Execution of Raymond Graham DVDRip XviD
[UL/EB/ZS/180U/VK]
Size: 932MB MP4 Streaming avi XVID / MP3

The Execution of Raymond Graham
Click on the image to see full size
[UL/EB/SS/ZS/BU/180U/VK] The Execution of Raymond Graham DVDRip XviD (932MB) - Snapshot 1[UL/EB/SS/ZS/BU/180U/VK] The Execution of Raymond Graham DVDRip XviD (932MB) - Snapshot 2
File Information
http://www.imdb.com/title/tt0089111/

     

Raymond Graham's life will soon end by lethal injection for a brutal murder. This drama plays out his last couple of hours as his apathy turns to terror as the minutes countdown.  Witness how this affects the family of the seventeen year old murder victim and his preacher. As well as the the protesters outside the prison wal  

General
Complete name : The Execution of Raymond Graham.avi
Format : AVI
Format/Info : Audio Video Interleave
File size : 887 MiB
Duration : 1h 36mn
Overall bit rate : 1 290 Kbps
Writing application : MEncoder version 4.0.0 building on 20100917


Video
ID : 0
Format : MPEG-4 Visual
Format profile : [email protected]
Format settings, BVOP : No
Format settings, QPel : No
Format settings, GMC : No warppoints
Format settings, Matrix : Default (H.263)
Codec ID : DX50
Codec ID/Hint : DivX 5
Duration : 1h 36mn
Bit rate : 1 150 Kbps
Width : 720 pixels
Height : 540 pixels
Display aspect ratio : 4:3
Frame rate : 25.000 fps
Color space : YUV
Chroma subsampling : 4:2:0
Bit depth : 8 bits
Scan type : Progressive
Compression mode : Lossy
Bits/(Pixel*Frame) : 0.118
Stream size : 790 MiB (89%)
Writing library : DigiArty AV Encoder Core

Audio
ID : 1
Format : MPEG Audio
Format version : Version 1
Format profile : Layer 3
Codec ID : 55
Codec ID/Hint : MP3
Duration : 1h 36mn
Bit rate mode : Constant
Bit rate : 128 Kbps
Channel(s) : 2 channels
Sampling rate : 44.1 KHz
Compression mode : Lossy
Stream size : 88.0 MiB (10%)
Alignment : Aligned on interleaves
Interleave, duration : 26 ms (0.65 video frame)
Interleave, preload duration : 522 ms
Download
File Container: AVI
Video/Audio Codec: XVID MP3
Video Resolution:
RAR Recovery Record: 5% (How to repair corrupted archive RAR file?)
  Link(s) are dead.
  Link(s) are dead.
  Link(s) are dead.
Watch Online [MP4]

Show us some love

Leave a Comment

  • (never displayed)
  •  
        Members don't see captchas. Sign Up / Sign In
  • Notify me via email when someone responds.
  • Subscribe my Feeds
  • Facebook

Latest Episodes

Popular Movies and TV Shows

  • Twirlywoos
  • Magi: Sinbad no Bouken
  • Manhunt: Unabomber
  • Koe no katachi
  • All Eyez on Me
  • Megan Leavey
  • Shooter
  • America's Got Talent
  • Animal Kingdom
  • Starship Troopers: Traitor of Mars
  • Heaven
  • Shi mian
  • Game of Thrones
  • Wrecked
  • Somewhere Between
  • Bedazzled
  • Sisters
  • Barclays English Premier League 2004/2005
  • Preacher
  • Midnight, Texas
  • People of Earth
  • Lowriders
  • Erik the Viking
  • Guardians of the Galaxy Vol. 2
  • The Last Ship

Recent Comments

  • Frege23: Hello,sorry for yodeling here again but is there any chance for a re-upload of Once Upon A Time Seas...
  • thaone:

    Thank You

  • thaone:

    Thank You

  • PerKar:

    Not 160MB mkv, it is 440MB mp4?!

  • thaone:

    Thank You

  • peymanusa:

    PREACHER S02E10 DIRTY LITTLE SECRET 1080P WEB-DL HEVC X265-RMTEAM ntb

  • Eduu:

    Please reupload clicknuload.org link

  • mth: Not sure why this series was abandoned right at the end like this. Anyone looking for the third and ...
  • thaone:

    Thank You

  • dave0:

    please can you re-up this film. It's a classic