Добавить рекламное обьявление
Sign Up   |   Sign In  

Announcements

Click to Donate!
Get a RapidRAR Premium Key as a gift.
RapidRAR Account
3 USD/EUR
7 Days
8 USD/EUR
30 Days
20 USD/EUR
3 Months
35 USD/EUR
6 Months
65 USD/EUR
1 Year
-- We need your support to keep this website alive --
Please buy a RapidRAR premium key from this reseller
Or use this LINK to REGISTER or RENEW your account on Uploaded.net.

12/15

2012

No

Comments

The Execution of Raymond Graham DVDRip XviD
[UL/EB/180U/VK]
Size: 932MB MP4 Streaming avi XVID / MP3

The Execution of Raymond Graham
Click on the image to see full size
[UL/EB/SS/ZS/BU/180U/VK] The Execution of Raymond Graham DVDRip XviD (932MB) - Snapshot 1[UL/EB/SS/ZS/BU/180U/VK] The Execution of Raymond Graham DVDRip XviD (932MB) - Snapshot 2
File Information
http://www.imdb.com/title/tt0089111/

     

Raymond Graham's life will soon end by lethal injection for a brutal murder. This drama plays out his last couple of hours as his apathy turns to terror as the minutes countdown.  Witness how this affects the family of the seventeen year old murder victim and his preacher. As well as the the protesters outside the prison wal  

General
Complete name : The Execution of Raymond Graham.avi
Format : AVI
Format/Info : Audio Video Interleave
File size : 887 MiB
Duration : 1h 36mn
Overall bit rate : 1 290 Kbps
Writing application : MEncoder version 4.0.0 building on 20100917


Video
ID : 0
Format : MPEG-4 Visual
Format profile : [email protected]
Format settings, BVOP : No
Format settings, QPel : No
Format settings, GMC : No warppoints
Format settings, Matrix : Default (H.263)
Codec ID : DX50
Codec ID/Hint : DivX 5
Duration : 1h 36mn
Bit rate : 1 150 Kbps
Width : 720 pixels
Height : 540 pixels
Display aspect ratio : 4:3
Frame rate : 25.000 fps
Color space : YUV
Chroma subsampling : 4:2:0
Bit depth : 8 bits
Scan type : Progressive
Compression mode : Lossy
Bits/(Pixel*Frame) : 0.118
Stream size : 790 MiB (89%)
Writing library : DigiArty AV Encoder Core

Audio
ID : 1
Format : MPEG Audio
Format version : Version 1
Format profile : Layer 3
Codec ID : 55
Codec ID/Hint : MP3
Duration : 1h 36mn
Bit rate mode : Constant
Bit rate : 128 Kbps
Channel(s) : 2 channels
Sampling rate : 44.1 KHz
Compression mode : Lossy
Stream size : 88.0 MiB (10%)
Alignment : Aligned on interleaves
Interleave, duration : 26 ms (0.65 video frame)
Interleave, preload duration : 522 ms
Download
RAR Recovery Record: 5%
  Link(s) are dead.
  Link(s) are dead.
  Link(s) are dead.
Watch Online (MP4)
» Click to see all releases of "The Execution of Raymond Graham" ...

Show us some love

Leave a Comment

  • (never displayed)
  •  
        Members don't see captchas. Sign Up / Sign In
  • Notify me via email when someone responds.
  • Subscribe my Feeds
  • Facebook

Latest Episodes

Popular Movies and TV Shows

  • Poh and Co
  • Wentworth
  • Bad Moon
  • Boardwalk Empire
  • Tiny Giants 3D
  • Star Trek Beyond
  • The Daily Show
  • Lake Life
  • The Tonight Show Starring Jimmy Fallon
  • The Russian Woodpecker
  • Dough
  • UnREAL
  • Major Crimes
  • Rizzoli & Isles
  • Robinson Crusoe
  • X-Men: Apocalypse
  • Fuocoammare
  • The Night Of
  • Preacher
  • The Last Ship
  • The Return of the Living Dead
  • Batman: The Killing Joke
  • Prometheus
  • Ray Donovan

Recent Comments

  • jsonnn: Hey guys, all links are dead here. Same in episode 5. For all other episodes only the rapidRAR remai...
  • jsonnn: Hey guys, all links are dead here. Same in episode 12. For all other episodes only the rapidRAR rema...
  • violetcherry:

    Thanks for the Wentworth x265, super speedy release this week.

  • bigbadbryce: Updated request "Please upload part 3 in 720p x265" (RMTeam).Thank you in anticipation.BBB...
  • bigbadbryce:

    Now all dead links

  • bigbadbryce: RapidRAR (REUP #2): This link is actually a stream (watch) and not a down load.Could the correct Ra...
  • arif:

    someone please re-upload GoT all season in uploaded acc.

  • aishah:

    Guys, can you re-upload GoT for all season please.

  • bigbadbryce: Vanishing.Point.1971.MULTi.1080p.BluRay.x264-FiDELiOAll links are now dead.Any chance that the Rapid...
  • do not: kat mirror site someone posted a so called kat mirror - kickasstorrent.cr , DO NOT try to D/L any m...